The text below is selected, press Ctrl+C to copy to your clipboard. (⌘+C on Mac) No line numbers will be copied.
Bhonsle (2018) 480p

26th June 2020 08:20:43 AM | Views: 38
  1. Format                                   : Matroska
  2. Format version                           : Version 4
  3. File size                                : 326 MiB
  4. Duration                                 : 1 h 58 min
  5. Overall bit rate                         : 384 kb/s
  6. Movie name                               : Bhonsle (2018) 480p WEB-DL x264 Hindi DD2.0 HSub 325MB [Www.MoviezAddiction.site]
  7. Encoded date                             : UTC 2020-06-26 05:12:49
  8. Writing application                      : mkvmerge v47.0.0 ('Black Flag') 64-bit
  9. Writing library                          : libebml v1.3.10 + libmatroska v1.5.2
  10.  
  11. Video
  12. ID                                       : 1
  13. Format                                   : AVC
  14. Format/Info                              : Advanced Video Codec
  15. Format profile                           : [email protected]
  16. Format settings                          : CABAC / 4 Ref Frames
  17. Format settings, CABAC                   : Yes
  18. Format settings, Reference frames        : 4 frames
  19. Codec ID                                 : V_MPEG4/ISO/AVC
  20. Duration                                 : 1 h 58 min
  21. Bit rate                                 : 350 kb/s
  22. Width                                    : 720 pixels
  23. Height                                   : 376 pixels
  24. Display aspect ratio                     : 1.915
  25. Frame rate mode                          : Constant
  26. Frame rate                               : 25.000 FPS
  27. Color space                              : YUV
  28. Chroma subsampling                       : 4:2:0
  29. Bit depth                                : 8 bits
  30. Scan type                                : Progressive
  31. Bits/(Pixel*Frame)                       : 0.052
  32. Stream size                              : 296 MiB (91%)
  33. Title                                    : [Www.MoviezAddiction.site]
  34. Writing library                          : x264 core 157 r2935 545de2f
  35. Encoding settings                        : cabac=1 / ref=3 / deblock=1:0:0 / analyse=0x1:0x111 / me=hex / subme=7 / psy=1 / psy_rd=1.00:0.00 / mixed_ref=1 / me_range=16 / chroma_me=1 / trellis=1 / 8x8dct=0 / cqm=0 / deadzone=21,11 / fast_pskip=1 / chroma_qp_offset=-2 / threads=12 / lookahead_threads=2 / sliced_threads=0 / nr=0 / decimate=1 / interlaced=0 / bluray_compat=0 / constrained_intra=0 / bframes=3 / b_pyramid=2 / b_adapt=1 / b_bias=0 / direct=1 / weightb=1 / open_gop=0 / weightp=2 / keyint=250 / keyint_min=25 / scenecut=40 / intra_refresh=0 / rc_lookahead=40 / rc=2pass / mbtree=1 / bitrate=350 / ratetol=1.0 / qcomp=0.60 / qpmin=0 / qpmax=69 / qpstep=4 / cplxblur=20.0 / qblur=0.5 / ip_ratio=1.40 / aq=1:1.00
  36. Default                                  : Yes
  37. Forced                                   : No
  38.  
  39. Audio
  40. ID                                       : 2
  41. Format                                   : AAC LC
  42. Format/Info                              : Advanced Audio Codec Low Complexity
  43. Codec ID                                 : A_AAC-2
  44. Duration                                 : 1 h 58 min
  45. Bit rate                                 : 32.3 kb/s
  46. Channel(s)                               : 2 channels
  47. Channel layout                           : L R
  48. Sampling rate                            : 48.0 kHz
  49. Frame rate                               : 46.875 FPS (1024 SPF)
  50. Compression mode                         : Lossy
  51. Stream size                              : 27.4 MiB (8%)
  52. Title                                    : [Www.MoviezAddiction.site] - Hindi
  53. Language                                 : Hindi
  54. Default                                  : Yes
  55. Forced                                   : Yes
  56.  
  57. Text
  58. ID                                       : 3
  59. Format                                   : S_TEXT/WEBVTT
  60. Codec ID                                 : S_TEXT/WEBVTT
  61. Duration                                 : 1 h 45 min
  62. Bit rate                                 : 19 b/s
  63. Count of elements                        : 483
  64. Stream size                              : 15.3 KiB (0%)
  65. Title                                    : [Www.MoviezAddiction.site] - Hindi
  66. Language                                 : Hindi
  67. Default                                  : Yes
  68. Forced                                   : Yes