The text below is selected, press Ctrl+C to copy to your clipboard. (⌘+C on Mac) No line numbers will be copied.
Suicide Squad (2016) TC 2160p...

16th January 2023 12:16:55 PM | Views: 13
  1. Format                                   : Matroska
  2. Format version                           : Version 4
  3. File size                                : 16.7 GiB
  4. Duration                                 : 2 h 2 min
  5. Overall bit rate mode                    : Variable
  6. Overall bit rate                         : 19.5 Mb/s
  7. Movie name                               : Suicide Squad (2016) TC 2160p UHD BluRay x265 10bit HDR HEVC Dual Audio [Hindi HDTV DDP2.0 + English DTS-HD MA 7.1] ESub 16.7GB [MoviezAddiction]
  8. Encoded date                             : UTC 2023-01-16 03:09:17
  9. Writing application                      : mkvmerge v72.0.0 ('Minuano (Six-eight)') 64-bit
  10. Writing library                          : libebml v1.4.4 + libmatroska v1.7.1
  11.  
  12. Video
  13. ID                                       : 1
  14. Format                                   : HEVC
  15. Format/Info                              : High Efficiency Video Coding
  16. Format profile                           : Main [email protected]@High
  17. HDR format                               : SMPTE ST 2086, HDR10 compatible
  18. Codec ID                                 : V_MPEGH/ISO/HEVC
  19. Duration                                 : 2 h 2 min
  20. Bit rate                                 : 15.3 Mb/s
  21. Width                                    : 3 840 pixels
  22. Height                                   : 1 600 pixels
  23. Display aspect ratio                     : 2.40:1
  24. Frame rate mode                          : Constant
  25. Frame rate                               : 23.976 (24000/1001) FPS
  26. Color space                              : YUV
  27. Chroma subsampling                       : 4:2:0
  28. Bit depth                                : 10 bits
  29. Bits/(Pixel*Frame)                       : 0.104
  30. Stream size                              : 13.2 GiB (79%)
  31. Default                                  : Yes
  32. Forced                                   : No
  33. Color range                              : Limited
  34. Color primaries                          : BT.2020
  35. Transfer characteristics                 : PQ
  36. Matrix coefficients                      : BT.2020 non-constant
  37. Mastering display color primaries        : Display P3
  38. Mastering display luminance              : min: 0.0001 cd/m2, max: 1000 cd/m2
  39. Maximum Content Light Level              : 4000 cd/m2
  40. Maximum Frame-Average Light Level        : 1000 cd/m2
  41.  
  42. Audio #1
  43. ID                                       : 2
  44. Format                                   : E-AC-3
  45. Format/Info                              : Enhanced AC-3
  46. Commercial name                          : Dolby Digital Plus
  47. Codec ID                                 : A_EAC3
  48. Duration                                 : 2 h 2 min
  49. Bit rate mode                            : Constant
  50. Bit rate                                 : 384 kb/s
  51. Channel(s)                               : 2 channels
  52. Channel layout                           : L R
  53. Sampling rate                            : 48.0 kHz
  54. Frame rate                               : 31.250 FPS (1536 SPF)
  55. Compression mode                         : Lossy
  56. Delay relative to video                  : -5 ms
  57. Stream size                              : 338 MiB (2%)
  58. Title                                    : Hindi
  59. Language                                 : Hindi
  60. Service kind                             : Complete Main
  61. Default                                  : Yes
  62. Forced                                   : No
  63.  
  64. Audio #2
  65. ID                                       : 3
  66. Format                                   : DTS XLL
  67. Format/Info                              : Digital Theater Systems
  68. Commercial name                          : DTS-HD Master Audio
  69. Codec ID                                 : A_DTS
  70. Duration                                 : 2 h 2 min
  71. Bit rate mode                            : Variable
  72. Bit rate                                 : 3 690 kb/s
  73. Channel(s)                               : 8 channels
  74. Channel layout                           : C L R LFE Lb Rb Lss Rss
  75. Sampling rate                            : 48.0 kHz
  76. Frame rate                               : 93.750 FPS (512 SPF)
  77. Bit depth                                : 24 bits
  78. Compression mode                         : Lossless
  79. Delay relative to video                  : -5 ms
  80. Stream size                              : 3.17 GiB (19%)
  81. Title                                    : English
  82. Language                                 : English
  83. Default                                  : No
  84. Forced                                   : No
  85.  
  86. Text
  87. ID                                       : 4
  88. Format                                   : PGS
  89. Codec ID                                 : S_HDMV/PGS
  90. Codec ID/Info                            : Picture based subtitle format used on BDs/HD-DVDs
  91. Duration                                 : 2 h 2 min
  92. Bit rate                                 : 30.5 kb/s
  93. Frame rate                               : 0.440 FPS
  94. Count of elements                        : 3228
  95. Stream size                              : 26.7 MiB (0%)
  96. Title                                    : English [PGS]
  97. Language                                 : English
  98. Default                                  : Yes
  99. Forced                                   : No
  100.  
  101. Menu
  102. 00:00:00.000                             : Chapter 1
  103. 00:09:07.714                             : Chapter 2
  104. 00:19:03.726                             : Chapter 3
  105. 00:29:27.349                             : Chapter 4
  106. 00:39:17.522                             : Chapter 5
  107. 00:50:21.227                             : Chapter 6
  108. 01:00:10.065                             : Chapter 7
  109. 01:11:46.886                             : Chapter 8
  110. 01:22:46.086                             : Chapter 9
  111. 01:32:01.099                             : Chapter 10
  112. 01:39:21.831                             : Chapter 11
  113. 01:52:28.075                             : Chapter 12