>
The text below is selected, press Ctrl+C to copy to your clipboard. (⌘+C on Mac) No line numbers will be copied.
MediaInfo

11th February 2019 02:21:57 AM | Views: 13
  1. Format                      : Matroska
  2. Format version              : Version 4 / Version 2
  3. File size                   : 754 MiB
  4. Duration                    : 1 h 30 min
  5. Overall bit rate            : 1 163 kb/s
  6. Movie name                  : High.Flying.Bird.2019.720p.NF.WEB-DL.MkvCage.ws
  7. Encoded date                : UTC 2019-02-11 02:19:27
  8. Writing application         : mkvmerge v30.0.0 ('Interstellar') 64-bit
  9. Writing library             : libebml v1.3.6 + libmatroska v1.4.9
  10.  
  11. Video
  12. ID                          : 1
  13. Format                      : AVC
  14. Format/Info                 : Advanced Video Codec
  15. Format profile              : [email protected]
  16. Format settings             : CABAC / 5 Ref Frames
  17. Format settings, CABAC      : Yes
  18. Format settings, ReFrames   : 5 frames
  19. Codec ID                    : V_MPEG4/ISO/AVC
  20. Duration                    : 1 h 30 min
  21. Bit rate                    : 1 092 kb/s
  22. Width                       : 1 280 pixels
  23. Height                      : 536 pixels
  24. Display aspect ratio        : 2.40:1
  25. Frame rate mode             : Constant
  26. Frame rate                  : 24.000 FPS
  27. Color space                 : YUV
  28. Chroma subsampling          : 4:2:0
  29. Bit depth                   : 8 bits
  30. Scan type                   : Progressive
  31. Bits/(Pixel*Frame)          : 0.066
  32. Stream size                 : 708 MiB (94%)
  33. Writing library             : x264 core 157 r2935 545de2f
  34. Encoding settings           : cabac=1 / ref=5 / deblock=1:-1:-1 / analyse=0x3:0x133 / me=umh / subme=9 / psy=1 / psy_rd=1.00:0.10 / mixed_ref=1 / me_range=24 / chroma_me=1 / trellis=2 / 8x8dct=1 / cqm=0 / deadzone=21,11 / fast_pskip=1 / chroma_qp_offset=-3 / threads=17 / lookahead_threads=1 / sliced_threads=0 / nr=0 / decimate=1 / interlaced=0 / bluray_compat=0 / constrained_intra=0 / bframes=3 / b_pyramid=2 / b_adapt=2 / b_bias=0 / direct=3 / weightb=1 / open_gop=0 / weightp=2 / keyint=250 / keyint_min=23 / scenecut=40 / intra_refresh=0 / rc_lookahead=60 / rc=2pass / mbtree=1 / bitrate=1092 / ratetol=1.0 / qcomp=0.60 / qpmin=0 / qpmax=69 / qpstep=4 / cplxblur=20.0 / qblur=0.5 / ip_ratio=1.40 / aq=1:1.00
  35. Default                     : Yes
  36. Forced                      : No
  37.  
  38. Audio
  39. ID                          : 2
  40. Format                      : AAC
  41. Format/Info                 : Advanced Audio Codec
  42. Format profile              : HE-AAC / LC
  43. Format settings             : Explicit
  44. Codec ID                    : A_AAC-2
  45. Duration                    : 1 h 30 min
  46. Bit rate                    : 64.0 kb/s
  47. Channel(s)                  : 2 channels
  48. Channel positions           : Front: L R
  49. Sampling rate               : 48.0 kHz / 24.0 kHz
  50. Frame rate                  : 23.438 FPS (1024 SPF)
  51. Compression mode            : Lossy
  52. Delay relative to video     : 43 ms
  53. Stream size                 : 41.5 MiB (6%)
  54. Language                    : English
  55. Default                     : Yes
  56. Forced                      : No
  57.  
  58. Text #1
  59. ID                          : 3
  60. Format                      : UTF-8
  61. Codec ID                    : S_TEXT/UTF8
  62. Codec ID/Info               : UTF-8 Plain Text
  63. Duration                    : 1 h 29 min
  64. Bit rate                    : 93 b/s
  65. Count of elements           : 1629
  66. Stream size                 : 61.5 KiB (0%)
  67. Language                    : English
  68. Default                     : Yes
  69. Forced                      : No
  70.  
  71. Text #2
  72. ID                          : 4
  73. Format                      : UTF-8
  74. Codec ID                    : S_TEXT/UTF8
  75. Codec ID/Info               : UTF-8 Plain Text
  76. Duration                    : 1 h 29 min
  77. Bit rate                    : 99 b/s
  78. Count of elements           : 1680
  79. Stream size                 : 65.3 KiB (0%)
  80. Title                       : SDH
  81. Language                    : English
  82. Default                     : No
  83. Forced                      : No
  84.  
  85. Text #3
  86. ID                          : 5
  87. Format                      : UTF-8
  88. Codec ID                    : S_TEXT/UTF8
  89. Codec ID/Info               : UTF-8 Plain Text
  90. Duration                    : 1 h 27 min
  91. Bit rate                    : 159 b/s
  92. Count of elements           : 1611
  93. Stream size                 : 103 KiB (0%)
  94. Language                    : Arabic
  95. Default                     : No
  96. Forced                      : No
  97.  
  98. Text #4
  99. ID                          : 6
  100. Format                      : UTF-8
  101. Codec ID                    : S_TEXT/UTF8
  102. Codec ID/Info               : UTF-8 Plain Text
  103. Duration                    : 1 h 27 min
  104. Bit rate                    : 86 b/s
  105. Count of elements           : 1520
  106. Stream size                 : 55.4 KiB (0%)
  107. Language                    : Danish
  108. Default                     : No
  109. Forced                      : No
  110.  
  111. Text #5
  112. ID                          : 7
  113. Format                      : UTF-8
  114. Codec ID                    : S_TEXT/UTF8
  115. Codec ID/Info               : UTF-8 Plain Text
  116. Duration                    : 1 h 27 min
  117. Bit rate                    : 82 b/s
  118. Count of elements           : 1613
  119. Stream size                 : 52.9 KiB (0%)
  120. Language                    : German
  121. Default                     : No
  122. Forced                      : No
  123.  
  124. Text #6
  125. ID                          : 8
  126. Format                      : UTF-8
  127. Codec ID                    : S_TEXT/UTF8
  128. Codec ID/Info               : UTF-8 Plain Text
  129. Duration                    : 1 h 27 min
  130. Bit rate                    : 136 b/s
  131. Count of elements           : 1525
  132. Stream size                 : 87.6 KiB (0%)
  133. Language                    : Greek
  134. Default                     : No
  135. Forced                      : No
  136.  
  137. Text #7
  138. ID                          : 9
  139. Format                      : UTF-8
  140. Codec ID                    : S_TEXT/UTF8
  141. Codec ID/Info               : UTF-8 Plain Text
  142. Duration                    : 1 h 27 min
  143. Bit rate                    : 79 b/s
  144. Count of elements           : 1443
  145. Stream size                 : 50.8 KiB (0%)
  146. Title                       : European
  147. Language                    : Spanish
  148. Default                     : No
  149. Forced                      : No
  150.  
  151. Text #8
  152. ID                          : 10
  153. Format                      : UTF-8
  154. Codec ID                    : S_TEXT/UTF8
  155. Codec ID/Info               : UTF-8 Plain Text
  156. Duration                    : 1 h 27 min
  157. Bit rate                    : 80 b/s
  158. Count of elements           : 1509
  159. Stream size                 : 51.9 KiB (0%)
  160. Language                    : Spanish
  161. Default                     : No
  162. Forced                      : No
  163.  
  164. Text #9
  165. ID                          : 11
  166. Format                      : UTF-8
  167. Codec ID                    : S_TEXT/UTF8
  168. Codec ID/Info               : UTF-8 Plain Text
  169. Duration                    : 1 h 27 min
  170. Bit rate                    : 82 b/s
  171. Count of elements           : 1303
  172. Stream size                 : 53.0 KiB (0%)
  173. Language                    : Finnish
  174. Default                     : No
  175. Forced                      : No
  176.  
  177. Text #10
  178. ID                          : 12
  179. Format                      : UTF-8
  180. Codec ID                    : S_TEXT/UTF8
  181. Codec ID/Info               : UTF-8 Plain Text
  182. Duration                    : 1 h 27 min
  183. Bit rate                    : 77 b/s
  184. Count of elements           : 1598
  185. Stream size                 : 50.1 KiB (0%)
  186. Language                    : French
  187. Default                     : No
  188. Forced                      : No
  189.  
  190. Text #11
  191. ID                          : 13
  192. Format                      : UTF-8
  193. Codec ID                    : S_TEXT/UTF8
  194. Codec ID/Info               : UTF-8 Plain Text
  195. Duration                    : 1 h 27 min
  196. Bit rate                    : 140 b/s
  197. Count of elements           : 1610
  198. Stream size                 : 90.6 KiB (0%)
  199. Language                    : Hebrew
  200. Default                     : No
  201. Forced                      : No
  202.  
  203. Text #12
  204. ID                          : 14
  205. Format                      : UTF-8
  206. Codec ID                    : S_TEXT/UTF8
  207. Codec ID/Info               : UTF-8 Plain Text
  208. Duration                    : 1 h 27 min
  209. Bit rate                    : 84 b/s
  210. Count of elements           : 1535
  211. Stream size                 : 54.6 KiB (0%)
  212. Language                    : Indonesian
  213. Default                     : No
  214. Forced                      : No
  215.  
  216. Text #13
  217. ID                          : 15
  218. Format                      : UTF-8
  219. Codec ID                    : S_TEXT/UTF8
  220. Codec ID/Info               : UTF-8 Plain Text
  221. Duration                    : 1 h 27 min
  222. Bit rate                    : 85 b/s
  223. Count of elements           : 1413
  224. Stream size                 : 55.1 KiB (0%)
  225. Language                    : Italian
  226. Default                     : No
  227. Forced                      : No
  228.  
  229. Text #14
  230. ID                          : 16
  231. Format                      : UTF-8
  232. Codec ID                    : S_TEXT/UTF8
  233. Codec ID/Info               : UTF-8 Plain Text
  234. Duration                    : 1 h 27 min
  235. Bit rate                    : 87 b/s
  236. Count of elements           : 1480
  237. Stream size                 : 56.4 KiB (0%)
  238. Language                    : Japanese
  239. Default                     : No
  240. Forced                      : No
  241.  
  242. Text #15
  243. ID                          : 17
  244. Format                      : UTF-8
  245. Codec ID                    : S_TEXT/UTF8
  246. Codec ID/Info               : UTF-8 Plain Text
  247. Duration                    : 1 h 27 min
  248. Bit rate                    : 117 b/s
  249. Count of elements           : 1618
  250. Stream size                 : 75.8 KiB (0%)
  251. Language                    : Korean
  252. Default                     : No
  253. Forced                      : No
  254.  
  255. Text #16
  256. ID                          : 18
  257. Format                      : UTF-8
  258. Codec ID                    : S_TEXT/UTF8
  259. Codec ID/Info               : UTF-8 Plain Text
  260. Duration                    : 1 h 27 min
  261. Bit rate                    : 80 b/s
  262. Count of elements           : 1603
  263. Stream size                 : 52.0 KiB (0%)
  264. Language                    : Norwegian Bokmal
  265. Default                     : No
  266. Forced                      : No
  267.  
  268. Text #17
  269. ID                          : 19
  270. Format                      : UTF-8
  271. Codec ID                    : S_TEXT/UTF8
  272. Codec ID/Info               : UTF-8 Plain Text
  273. Duration                    : 1 h 27 min
  274. Bit rate                    : 89 b/s
  275. Count of elements           : 1504
  276. Stream size                 : 57.9 KiB (0%)
  277. Language                    : Dutch
  278. Default                     : No
  279. Forced                      : No
  280.  
  281. Text #18
  282. ID                          : 20
  283. Format                      : UTF-8
  284. Codec ID                    : S_TEXT/UTF8
  285. Codec ID/Info               : UTF-8 Plain Text
  286. Duration                    : 1 h 27 min
  287. Bit rate                    : 77 b/s
  288. Count of elements           : 1511
  289. Stream size                 : 49.8 KiB (0%)
  290. Language                    : Polish
  291. Default                     : No
  292. Forced                      : No
  293.  
  294. Text #19
  295. ID                          : 21
  296. Format                      : UTF-8
  297. Codec ID                    : S_TEXT/UTF8
  298. Codec ID/Info               : UTF-8 Plain Text
  299. Duration                    : 1 h 27 min
  300. Bit rate                    : 89 b/s
  301. Count of elements           : 1580
  302. Stream size                 : 57.8 KiB (0%)
  303. Title                       : Brazilian
  304. Language                    : Portuguese
  305. Default                     : No
  306. Forced                      : No
  307.  
  308. Text #20
  309. ID                          : 22
  310. Format                      : UTF-8
  311. Codec ID                    : S_TEXT/UTF8
  312. Codec ID/Info               : UTF-8 Plain Text
  313. Duration                    : 1 h 27 min
  314. Bit rate                    : 89 b/s
  315. Count of elements           : 1459
  316. Stream size                 : 57.3 KiB (0%)
  317. Language                    : Portuguese
  318. Default                     : No
  319. Forced                      : No
  320.  
  321. Text #21
  322. ID                          : 23
  323. Format                      : UTF-8
  324. Codec ID                    : S_TEXT/UTF8
  325. Codec ID/Info               : UTF-8 Plain Text
  326. Duration                    : 1 h 27 min
  327. Bit rate                    : 101 b/s
  328. Count of elements           : 1560
  329. Stream size                 : 65.5 KiB (0%)
  330. Language                    : Romanian
  331. Default                     : No
  332. Forced                      : No
  333.  
  334. Text #22
  335. ID                          : 24
  336. Format                      : UTF-8
  337. Codec ID                    : S_TEXT/UTF8
  338. Codec ID/Info               : UTF-8 Plain Text
  339. Duration                    : 1 h 27 min
  340. Bit rate                    : 139 b/s
  341. Count of elements           : 1568
  342. Stream size                 : 89.6 KiB (0%)
  343. Language                    : Russian
  344. Default                     : No
  345. Forced                      : No
  346.  
  347. Text #23
  348. ID                          : 25
  349. Format                      : UTF-8
  350. Codec ID                    : S_TEXT/UTF8
  351. Codec ID/Info               : UTF-8 Plain Text
  352. Duration                    : 1 h 27 min
  353. Bit rate                    : 82 b/s
  354. Count of elements           : 1523
  355. Stream size                 : 52.9 KiB (0%)
  356. Language                    : Swedish
  357. Default                     : No
  358. Forced                      : No
  359.  
  360. Text #24
  361. ID                          : 26
  362. Format                      : UTF-8
  363. Codec ID                    : S_TEXT/UTF8
  364. Codec ID/Info               : UTF-8 Plain Text
  365. Duration                    : 1 h 27 min
  366. Bit rate                    : 233 b/s
  367. Count of elements           : 1612
  368. Stream size                 : 150 KiB (0%)
  369. Language                    : Thai
  370. Default                     : No
  371. Forced                      : No
  372.  
  373. Text #25
  374. ID                          : 27
  375. Format                      : UTF-8
  376. Codec ID                    : S_TEXT/UTF8
  377. Codec ID/Info               : UTF-8 Plain Text
  378. Duration                    : 1 h 27 min
  379. Bit rate                    : 90 b/s
  380. Count of elements           : 1586
  381. Stream size                 : 58.0 KiB (0%)
  382. Language                    : Turkish
  383. Default                     : No
  384. Forced                      : No
  385.  
  386. Text #26
  387. ID                          : 28
  388. Format                      : UTF-8
  389. Codec ID                    : S_TEXT/UTF8
  390. Codec ID/Info               : UTF-8 Plain Text
  391. Duration                    : 1 h 27 min
  392. Bit rate                    : 100 b/s
  393. Count of elements           : 1612
  394. Stream size                 : 64.5 KiB (0%)
  395. Title                       : Simplified
  396. Language                    : Chinese
  397. Default                     : No
  398. Forced                      : No
  399.  
  400. Text #27
  401. ID                          : 29
  402. Format                      : UTF-8
  403. Codec ID                    : S_TEXT/UTF8
  404. Codec ID/Info               : UTF-8 Plain Text
  405. Duration                    : 1 h 27 min
  406. Bit rate                    : 100 b/s
  407. Count of elements           : 1612
  408. Stream size                 : 64.6 KiB (0%)
  409. Title                       : Traditional
  410. Language                    : Chinese
  411. Default                     : No
  412. Forced                      : No