The text below is selected, press Ctrl+C to copy to your clipboard. (⌘+C on Mac) No line numbers will be copied.
Lost Bullet 2 (2022) 1080p...

13th November 2022 08:36:49 AM | Views: 18
  1. Format                                   : Matroska
  2. Format version                           : Version 4
  3. File size                                : 2.09 GiB
  4. Duration                                 : 1 h 40 min
  5. Overall bit rate                         : 2 983 kb/s
  6. Movie name                               : Lost Bullet 2 (2022) 1080p NF WEB-DL x265 10bit HEVC Dual Audio [Hindi DDP5.1 + English DDP5.1] ESub 2.08GB [MoviezAddiction.life]
  7. Encoded date                             : UTC 2022-11-13 06:02:04
  8. Writing application                      : mkvmerge v71.1.0 ('Fortitude') 64-bit
  9. Writing library                          : libebml v1.4.4 + libmatroska v1.7.1
  10.  
  11. Video
  12. ID                                       : 1
  13. Format                                   : HEVC
  14. Format/Info                              : High Efficiency Video Coding
  15. Format profile                           : Main [email protected]@Main
  16. Codec ID                                 : V_MPEGH/ISO/HEVC
  17. Duration                                 : 1 h 40 min
  18. Bit rate                                 : 1 701 kb/s
  19. Width                                    : 1 920 pixels
  20. Height                                   : 802 pixels
  21. Display aspect ratio                     : 2.40:1
  22. Frame rate mode                          : Constant
  23. Frame rate                               : 25.000 FPS
  24. Color space                              : YUV
  25. Chroma subsampling                       : 4:2:0
  26. Bit depth                                : 10 bits
  27. Bits/(Pixel*Frame)                       : 0.044
  28. Stream size                              : 1.19 GiB (57%)
  29. Default                                  : Yes
  30. Forced                                   : No
  31.  
  32. Audio #1
  33. ID                                       : 2
  34. Format                                   : E-AC-3
  35. Format/Info                              : Enhanced AC-3
  36. Commercial name                          : Dolby Digital Plus
  37. Codec ID                                 : A_EAC3
  38. Duration                                 : 1 h 40 min
  39. Bit rate mode                            : Constant
  40. Bit rate                                 : 640 kb/s
  41. Channel(s)                               : 6 channels
  42. Channel layout                           : L R C LFE Ls Rs
  43. Sampling rate                            : 48.0 kHz
  44. Frame rate                               : 31.250 FPS (1536 SPF)
  45. Compression mode                         : Lossy
  46. Stream size                              : 458 MiB (21%)
  47. Title                                    : Hindi
  48. Language                                 : Hindi
  49. Service kind                             : Complete Main
  50. Default                                  : Yes
  51. Forced                                   : No
  52.  
  53. Audio #2
  54. ID                                       : 3
  55. Format                                   : E-AC-3
  56. Format/Info                              : Enhanced AC-3
  57. Commercial name                          : Dolby Digital Plus
  58. Codec ID                                 : A_EAC3
  59. Duration                                 : 1 h 40 min
  60. Bit rate mode                            : Constant
  61. Bit rate                                 : 640 kb/s
  62. Channel(s)                               : 6 channels
  63. Channel layout                           : L R C LFE Ls Rs
  64. Sampling rate                            : 48.0 kHz
  65. Frame rate                               : 31.250 FPS (1536 SPF)
  66. Compression mode                         : Lossy
  67. Stream size                              : 458 MiB (21%)
  68. Title                                    : English
  69. Language                                 : English
  70. Service kind                             : Complete Main
  71. Default                                  : No
  72. Forced                                   : No
  73.  
  74. Text
  75. ID                                       : 4
  76. Format                                   : UTF-8
  77. Codec ID                                 : S_TEXT/UTF8
  78. Codec ID/Info                            : UTF-8 Plain Text
  79. Duration                                 : 1 h 37 min
  80. Bit rate                                 : 21 b/s
  81. Frame rate                               : 0.093 FPS
  82. Count of elements                        : 545
  83. Stream size                              : 15.5 KiB (0%)
  84. Title                                    : English [SRT]
  85. Language                                 : English
  86. Default                                  : Yes
  87. Forced                                   : No