The text below is selected, press Ctrl+C to copy to your clipboard. (⌘+C on Mac) No line numbers will be copied.
MediaInfo

10th August 2019 08:56:55 PM | Views: 718
  1. Format                      : Matroska
  2. Format version              : Version 4
  3. File size                   : 2.50 GiB
  4. Duration                    : 1 h 47 min
  5. Overall bit rate            : 3 347 kb/s
  6. Movie name                  : Nothing.But.the.Truth.2008.1080p.BluRay.10bit.HEVC.6CH-MkvCage.com
  7. Encoded date                : UTC 2019-08-10 20:47:22
  8. Writing application         : mkvmerge v35.0.0 ('All The Love In The World') 64-bit
  9. Writing library             : libebml v1.3.9 + libmatroska v1.5.2
  10. Cover                       : Yes
  11. Attachments                 : cover.jpg
  12.  
  13. Video
  14. ID                          : 1
  15. Format                      : HEVC
  16. Format/Info                 : High Efficiency Video Coding
  17. Format profile              : Main [email protected]@Main
  18. Codec ID                    : V_MPEGH/ISO/HEVC
  19. Duration                    : 1 h 47 min
  20. Bit rate                    : 3 089 kb/s
  21. Width                       : 1 920 pixels
  22. Height                      : 1 080 pixels
  23. Display aspect ratio        : 16:9
  24. Frame rate mode             : Constant
  25. Frame rate                  : 23.976 (24000/1001) FPS
  26. Color space                 : YUV
  27. Chroma subsampling          : 4:2:0
  28. Bit depth                   : 10 bits
  29. Bits/(Pixel*Frame)          : 0.062
  30. Stream size                 : 2.31 GiB (92%)
  31. Default                     : Yes
  32. Forced                      : No
  33.  
  34. Audio
  35. ID                          : 2
  36. Format                      : AAC LC SBR
  37. Format/Info                 : Advanced Audio Codec Low Complexity with Spectral Band Replication
  38. Commercial name             : HE-AAC
  39. Format settings             : Explicit
  40. Codec ID                    : A_AAC-2
  41. Duration                    : 1 h 47 min
  42. Bit rate                    : 256 kb/s
  43. Channel(s)                  : 6 channels
  44. Channel layout              : C L R Ls Rs LFE
  45. Sampling rate               : 48.0 kHz
  46. Frame rate                  : 23.438 FPS (2048 SPF)
  47. Compression mode            : Lossy
  48. Delay relative to video     : 43 ms
  49. Stream size                 : 196 MiB (8%)
  50. Language                    : English
  51. Default                     : Yes
  52. Forced                      : No
  53.  
  54. Text
  55. ID                          : 3
  56. Format                      : UTF-8
  57. Codec ID                    : S_TEXT/UTF8
  58. Codec ID/Info               : UTF-8 Plain Text
  59. Duration                    : 1 h 41 min
  60. Bit rate                    : 93 b/s
  61. Count of elements           : 1627
  62. Stream size                 : 68.9 KiB (0%)
  63. Language                    : English
  64. Default                     : Yes
  65. Forced                      : No
  66.  
  67. Menu
  68. 00:00:00.000                : en:Chapter 1
  69. 00:15:01.692                : en:Chapter 2
  70. 00:31:22.547                : en:Chapter 3
  71. 00:47:54.371                : en:Chapter 4
  72. 01:08:26.519                : en:Chapter 5
  73. 01:29:22.148                : en:Chapter 6