The text below is selected, press Ctrl+C to copy to your clipboard. (⌘+C on Mac) No line numbers will be copied.
Sicario (2015) 720p Bluray x265

14th September 2020 07:56:51 PM | Views: 28
  1. Format                                   : Matroska
  2. Format version                           : Version 4
  3. File size                                : 969 MiB
  4. Duration                                 : 2 h 1 min
  5. Overall bit rate                         : 1 117 kb/s
  6. Movie name                               : Sicario (2015) 720p Bluray x265 10bit HEVC Dual Audio [ Hindi DD2.0 + English DD5.1 ] ESub [www.MoviezAddiction.space]
  7. Encoded date                             : UTC 2020-09-14 17:49:05
  8. Writing application                      : mkvmerge v48.0.0 ('Fortress Around Your Heart') 64-bit
  9. Writing library                          : libebml v1.4.0 + libmatroska v1.6.0
  10.  
  11. Video
  12. ID                                       : 4
  13. Format                                   : HEVC
  14. Format/Info                              : High Efficiency Video Coding
  15. Format profile                           : Main [email protected]@Main
  16. Codec ID                                 : V_MPEGH/ISO/HEVC
  17. Duration                                 : 2 h 1 min
  18. Bit rate                                 : 701 kb/s
  19. Width                                    : 1 280 pixels
  20. Height                                   : 536 pixels
  21. Display aspect ratio                     : 2.40:1
  22. Frame rate mode                          : Constant
  23. Frame rate                               : 23.976 (24000/1001) FPS
  24. Color space                              : YUV
  25. Chroma subsampling                       : 4:2:0
  26. Bit depth                                : 10 bits
  27. Bits/(Pixel*Frame)                       : 0.043
  28. Stream size                              : 608 MiB (63%)
  29. Title                                    : [www.MoviezAddiction.space]
  30. Writing library                          : x265 3.4+6-g73f96ff39:[Windows][GCC 11.0.0][64 bit] 10bit
  31. Encoding settings                        : cpuid=1111039 / frame-threads=3 / numa-pools=8 / wpp / no-pmode / no-pme / no-psnr / no-ssim / log-level=2 / input-csp=1 / input-res=1280x536 / interlace=0 / total-frames=174553 / level-idc=0 / high-tier=1 / uhd-bd=0 / ref=3 / no-allow-non-conformance / no-repeat-headers / annexb / no-aud / no-hrd / info / hash=0 / no-temporal-layers / open-gop / min-keyint=23 / keyint=250 / gop-lookahead=0 / bframes=4 / b-adapt=2 / b-pyramid / bframe-bias=0 / rc-lookahead=20 / lookahead-slices=0 / scenecut=40 / hist-scenecut=0 / radl=0 / no-splice / no-intra-refresh / ctu=64 / min-cu-size=8 / no-rect / no-amp / max-tu-size=32 / tu-inter-depth=1 / tu-intra-depth=1 / limit-tu=0 / rdoq-level=0 / dynamic-rd=0.00 / no-ssim-rd / signhide / no-tskip / nr-intra=0 / nr-inter=0 / no-constrained-intra / strong-intra-smoothing / max-merge=3 / limit-refs=1 / no-limit-modes / me=1 / subme=2 / merange=57 / temporal-mvp / no-frame-dup / no-hme / weightp / no-weightb / no-analyze-src-pics / deblock=0:0 / sao / no-sao-non-deblock / rd=3 / selective-sao=4 / early-skip / rskip / no-fast-intra / no-tskip-fast / no-cu-lossless / b-intra / no-splitrd-skip / rdpenalty=0 / psy-rd=2.00 / psy-rdoq=0.00 / no-rd-refine / no-lossless / cbqpoffs=0 / crqpoffs=0 / rc=abr / bitrate=700 / qcomp=0.60 / qpstep=4 / stats-write=0 / stats-read=2 / cplxblur=20.0 / qblur=0.5 / ipratio=1.40 / pbratio=1.30 / aq-mode=2 / aq-strength=1.00 / cutree / zone-count=0 / no-strict-cbr / qg-size=32 / no-rc-grain / qpmax=69 / qpmin=0 / no-const-vbv / sar=0 / overscan=0 / videoformat=5 / range=0 / colorprim=2 / transfer=2 / colormatrix=2 / chromaloc=0 / display-window=0 / cll=0,0 / min-luma=0 / max-luma=1023 / log2-max-poc-lsb=8 / vui-timing-info / vui-hrd-info / slices=1 / no-opt-qp-pps / no-opt-ref-list-length-pps / no-multi-pass-opt-rps / scenecut-bias=0.05 / hist-threshold=0.01 / no-opt-cu-delta-qp / no-aq-motion / no-hdr10 / no-hdr10-opt / no-dhdr10-opt / no-idr-recovery-sei / analysis-reuse-level=0 / analysis-save-reuse-level=0 / analysis-load-reuse-level=0 / scale-factor=0 / refine-intra=0 / refine-inter=0 / refine-mv=1 / refine-ctu-distortion=0 / no-limit-sao / ctu-info=0 / no-lowpass-dct / refine-analysis-type=0 / copy-pic=1 / max-ausize-factor=1.0 / no-dynamic-refine / no-single-sei / no-hevc-aq / no-svt / no-field / qp-adaptation-range=1.00 / no-scenecut-aware-qpconformance-window-offsets / right=0 / bottom=0 / decoder-max-rate=0
  32. Default                                  : Yes
  33. Forced                                   : No
  34.  
  35. Audio #1
  36. ID                                       : 2
  37. Format                                   : AC-3
  38. Format/Info                              : Audio Coding 3
  39. Commercial name                          : Dolby Digital
  40. Codec ID                                 : A_AC3
  41. Duration                                 : 2 h 1 min
  42. Bit rate mode                            : Constant
  43. Bit rate                                 : 224 kb/s
  44. Channel(s)                               : 2 channels
  45. Channel layout                           : L R
  46. Sampling rate                            : 48.0 kHz
  47. Frame rate                               : 31.250 FPS (1536 SPF)
  48. Compression mode                         : Lossy
  49. Delay relative to video                  : 920 ms
  50. Stream size                              : 194 MiB (20%)
  51. Title                                    : [www.MoviezAddiction.space]
  52. Language                                 : Hindi
  53. Service kind                             : Complete Main
  54. Default                                  : Yes
  55. Forced                                   : Yes
  56.  
  57. Audio #2
  58. ID                                       : 3
  59. Format                                   : AAC LC
  60. Format/Info                              : Advanced Audio Codec Low Complexity
  61. Codec ID                                 : A_AAC-2
  62. Duration                                 : 2 h 1 min
  63. Bit rate                                 : 192 kb/s
  64. Channel(s)                               : 6 channels
  65. Channel layout                           : C L R Ls Rs LFE
  66. Sampling rate                            : 48.0 kHz
  67. Frame rate                               : 46.875 FPS (1024 SPF)
  68. Compression mode                         : Lossy
  69. Stream size                              : 164 MiB (17%)
  70. Title                                    : [www.MoviezAddiction.space]
  71. Language                                 : English
  72. Default                                  : No
  73. Forced                                   : No
  74.  
  75. Text
  76. ID                                       : 1
  77. Format                                   : UTF-8
  78. Codec ID                                 : S_TEXT/UTF8
  79. Codec ID/Info                            : UTF-8 Plain Text
  80. Duration                                 : 1 h 54 min
  81. Bit rate                                 : 44 b/s
  82. Count of elements                        : 1246
  83. Stream size                              : 37.4 KiB (0%)
  84. Title                                    : [www.MoviezAddiction.space]
  85. Language                                 : English
  86. Default                                  : Yes
  87. Forced                                   : Yes
  88.  
  89. Menu
  90. 00:00:00.000                             : en:Chapter 01
  91. 00:07:14.350                             : en:Chapter 02
  92. 00:12:55.107                             : en:Chapter 03
  93. 00:20:04.369                             : en:Chapter 04
  94. 00:25:24.814                             : en:Chapter 05
  95. 00:32:11.596                             : en:Chapter 06
  96. 00:39:24.820                             : en:Chapter 07
  97. 00:46:15.314                             : en:Chapter 08
  98. 00:53:24.576                             : en:Chapter 09
  99. 01:01:40.321                             : en:Chapter 10
  100. 01:10:49.119                             : en:Chapter 11
  101. 01:18:02.886                             : en:Chapter 12
  102. 01:30:59.370                             : en:Chapter 13
  103. 01:36:57.770                             : en:Chapter 14
  104. 01:47:42.038                             : en:Chapter 15
  105. 01:54:12.804                             : en:Chapter 16