The text below is selected, press Ctrl+C to copy to your clipboard. (⌘+C on Mac) No line numbers will be copied.
Dark Season 2 (2019) 1080p

27th June 2020 10:12:19 PM | Views: 19
  1. General
  2. Unique ID                                : 260678890809720968574402437349215783257 (0xC41CED9C6B2CCEA520F5DF92A3934959)
  3. Complete name                            : S:\Dark Season 2 Working\1080p\Dark (2019) S02E01 [Beginnings and Endings] 1080p 10bit WEB-DL x265 [English DD5.1] ESubs - [Www.MoviezAddiction.Site].mkv
  4. Format                                   : Matroska
  5. Format version                           : Version 4
  6. File size                                : 535 MiB
  7. Duration                                 : 53 min 56 s
  8. Overall bit rate                         : 1 387 kb/s
  9. Movie name                               : Dark (2019) S02E01 [Beginnings and Endings] 1080p 10bit WEB-DL x265 [English DD5.1] ESubs - [Www.MoviezAddiction.Site]
  10. Encoded date                             : UTC 2020-06-27 09:07:41
  11. Writing application                      : mkvmerge v47.0.0 ('Black Flag') 64-bit
  12. Writing library                          : libebml v1.3.10 + libmatroska v1.5.2
  13.  
  14. Video
  15. ID                                       : 1
  16. Format                                   : HEVC
  17. Format/Info                              : High Efficiency Video Coding
  18. Format profile                           : Main [email protected]@Main
  19. Codec ID                                 : V_MPEGH/ISO/HEVC
  20. Duration                                 : 53 min 55 s
  21. Bit rate                                 : 1 201 kb/s
  22. Width                                    : 1 920 pixels
  23. Height                                   : 960 pixels
  24. Display aspect ratio                     : 2.000
  25. Frame rate mode                          : Constant
  26. Frame rate                               : 24.000 FPS
  27. Color space                              : YUV
  28. Chroma subsampling                       : 4:2:0
  29. Bit depth                                : 10 bits
  30. Bits/(Pixel*Frame)                       : 0.027
  31. Stream size                              : 463 MiB (87%)
  32. Title                                    : [Www.MoviezAddiction.Site]
  33. Writing library                          : x265 3.0_Au+24-4217e691387c:[Windows][GCC 9.1.1][64 bit] 10bit
  34. Encoding settings                        : rc=abr / bitrate=1200 / qcomp=0.60 / qpstep=4 / stats-write=0 / stats-read=2 / cplxblur=20.0 / qblur=0.5 / qpmax=69 / qpmin=0 / no-lossless / no-cu-lossless / no-hevc-aq / no-aq-motion / aq-mode=2 / aq-strength=0.80 / cbqpoffs=0 / crqpoffs=0 / ipratio=1.40 / pbratio=1.30 / psy-rd=2.45 / psy-rdoq=1.50 / deblock=0:0 / ref=4 / limit-refs=3 / limit-modes / bframes=8 / b-adapt=2 / bframe-bias=40 / b-pyramid / no-b-intra / weightp / no-weightb / keyint=250 / min-keyint=24 / rc-lookahead=80 / gop-lookahead=0 / scenecut=40 / scenecut-bias=0.05 / ctu=64 / min-cu-size=8 / me=3 / subme=3 / merange=57 / rd=4 / no-rd-refine / ssim-rd / dynamic-rd=0.00 / rdoq-level=2 / rdpenalty=0 / cutree / sao / limit-sao / no-sao-non-deblock / no-rect / no-amp / open-gop / max-tu-size=32 / tu-inter-depth=1 / tu-intra-depth=1 / limit-tu=0 / qg-size=32 / wpp / no-pmode / no-pme / no-psnr / ssim / no-tskip / constrained-intra / strong-intra-smoothing / max-merge=3 / nr-intra=0 / nr-inter=0 / input-csp=1 / input-res=1920x960 / interlace=0 / total-frames=77660 / level-idc=0 / high-tier=1cpuid=1111039 / frame-threads=3 / numa-pools=12 / log-level=2 / uhd-bd=0 / lookahead-slices=4 / radl=0 / no-splice / no-intra-refresh / signhide / temporal-mvp / no-analyze-src-pics / early-skip / rskip / no-fast-intra / no-tskip-fast / splitrd-skip / zone-count=0 / no-strict-cbr / no-rc-grain / no-const-vbv / no-allow-non-conformance / no-repeat-headers / annexb / no-aud / no-hrd / info / hash=0 / no-temporal-layers / sar=0 / overscan=0 / videoformat=5 / range=0 / colorprim=2 / transfer=2 / colormatrix=2 / chromaloc=0 / display-window=0 / max-cll=0,0 / min-luma=0 / max-luma=1023 / log2-max-poc-lsb=8 / vui-timing-info / vui-hrd-info / slices=1 / no-opt-qp-pps / no-opt-ref-list-length-pps / multi-pass-opt-rps / no-opt-cu-delta-qp / no-hdr / no-hdr-opt / no-dhdr10-opt / no-idr-recovery-sei / analysis-reuse-level=10 / scale-factor=0 / refine-intra=0 / refine-inter=0 / refine-mv=0 / refine-ctu-distortion=0 / ctu-info=0 / no-lowpass-dct / refine-analysis-type=0 / copy-pic=1 / max-ausize-factor=1.0 / no-dynamic-refine / no-single-sei / no-svt / qp-adaptation-range=1.00
  35. Default                                  : Yes
  36. Forced                                   : No
  37.  
  38. Audio
  39. ID                                       : 2
  40. Format                                   : AAC LC SBR
  41. Format/Info                              : Advanced Audio Codec Low Complexity with Spectral Band Replication
  42. Commercial name                          : HE-AAC
  43. Format settings                          : Explicit
  44. Codec ID                                 : A_AAC-2
  45. Duration                                 : 53 min 56 s
  46. Bit rate                                 : 184 kb/s
  47. Channel(s)                               : 6 channels
  48. Channel layout                           : C L R Ls Rs LFE
  49. Sampling rate                            : 48.0 kHz
  50. Frame rate                               : 23.438 FPS (2048 SPF)
  51. Compression mode                         : Lossy
  52. Delay relative to video                  : 31 ms
  53. Stream size                              : 71.1 MiB (13%)
  54. Title                                    : [Www.MoviezAddiction.Site]
  55. Language                                 : English
  56. Default                                  : No
  57. Forced                                   : No
  58.  
  59. Text #1
  60. ID                                       : 3
  61. Format                                   : UTF-8
  62. Codec ID                                 : S_TEXT/UTF8
  63. Codec ID/Info                            : UTF-8 Plain Text
  64. Duration                                 : 50 min 4 s
  65. Bit rate                                 : 27 b/s
  66. Count of elements                        : 370
  67. Stream size                              : 10.2 KiB (0%)
  68. Title                                    : [Www.MoviezAddiction.Site]
  69. Language                                 : English
  70. Default                                  : No
  71. Forced                                   : No
  72.  
  73. Text #2
  74. ID                                       : 4
  75. Format                                   : UTF-8
  76. Codec ID                                 : S_TEXT/UTF8
  77. Codec ID/Info                            : UTF-8 Plain Text
  78. Duration                                 : 50 min 10 s
  79. Bit rate                                 : 37 b/s
  80. Count of elements                        : 466
  81. Stream size                              : 13.6 KiB (0%)
  82. Title                                    : [Www.MoviezAddiction.Site]
  83. Language                                 : English
  84. Default                                  : No
  85. Forced                                   : No
  86.  
  87. Text #3
  88. ID                                       : 5
  89. Format                                   : UTF-8
  90. Codec ID                                 : S_TEXT/UTF8
  91. Codec ID/Info                            : UTF-8 Plain Text
  92. Duration                                 : 50 min 4 s
  93. Bit rate                                 : 2 b/s
  94. Count of elements                        : 42
  95. Stream size                              : 1.03 KiB (0%)
  96. Title                                    : [Www.MoviezAddiction.Site]
  97. Language                                 : English
  98. Default                                  : No
  99. Forced                                   : No