The text below is selected, press Ctrl+C to copy to your clipboard. (⌘+C on Mac) No line numbers will be copied.
The Last Samurai (2003) 720p

14th September 2020 02:25:08 PM | Views: 22
  1. Format                                   : Matroska
  2. Format version                           : Version 4
  3. File size                                : 1.63 GiB
  4. Duration                                 : 2 h 34 min
  5. Overall bit rate                         : 1 511 kb/s
  6. Movie name                               : The Last Samurai (2003) 720p Bluray x264 Dual Audio [ Hindi DD2.0 + English DD5.1 ] ESubs [www.MoviezAddiction.space]
  7. Encoded date                             : UTC 2020-09-14 12:08:54
  8. Writing application                      : mkvmerge v48.0.0 ('Fortress Around Your Heart') 64-bit
  9. Writing library                          : libebml v1.4.0 + libmatroska v1.6.0
  10. Encoded by                               : Pahe.in™ Team
  11.  
  12. Video
  13. ID                                       : 2
  14. Format                                   : AVC
  15. Format/Info                              : Advanced Video Codec
  16. Format profile                           : [email protected]
  17. Format settings                          : CABAC / 5 Ref Frames
  18. Format settings, CABAC                   : Yes
  19. Format settings, Reference frames        : 5 frames
  20. Codec ID                                 : V_MPEG4/ISO/AVC
  21. Duration                                 : 2 h 34 min
  22. Bit rate                                 : 1 087 kb/s
  23. Width                                    : 1 280 pixels
  24. Height                                   : 528 pixels
  25. Display aspect ratio                     : 2.40:1
  26. Frame rate mode                          : Constant
  27. Frame rate                               : 23.976 (24000/1001) FPS
  28. Color space                              : YUV
  29. Chroma subsampling                       : 4:2:0
  30. Bit depth                                : 8 bits
  31. Scan type                                : Progressive
  32. Bits/(Pixel*Frame)                       : 0.067
  33. Stream size                              : 1.17 GiB (72%)
  34. Title                                    : [www.MoviezAddiction.space]
  35. Writing library                          : x264 core 152 r2851 ba24899
  36. Encoding settings                        : cabac=1 / ref=5 / deblock=1:-2:-2 / analyse=0x3:0x133 / me=umh / subme=9 / psy=1 / psy_rd=1.00:0.15 / mixed_ref=1 / me_range=24 / chroma_me=1 / trellis=2 / 8x8dct=1 / cqm=0 / deadzone=21,11 / fast_pskip=1 / chroma_qp_offset=-3 / threads=16 / lookahead_threads=1 / sliced_threads=0 / nr=0 / decimate=1 / interlaced=0 / bluray_compat=0 / constrained_intra=0 / bframes=3 / b_pyramid=2 / b_adapt=2 / b_bias=0 / direct=3 / weightb=1 / open_gop=0 / weightp=2 / keyint=250 / keyint_min=23 / scenecut=40 / intra_refresh=0 / rc_lookahead=60 / rc=2pass / mbtree=1 / bitrate=1087 / ratetol=1.0 / qcomp=0.60 / qpmin=0 / qpmax=69 / qpstep=4 / cplxblur=20.0 / qblur=0.5 / vbv_maxrate=17500 / vbv_bufsize=19000 / nal_hrd=none / filler=0 / ip_ratio=1.40 / aq=3:0.80
  37. Default                                  : Yes
  38. Forced                                   : No
  39.  
  40. Audio #1
  41. ID                                       : 1
  42. Format                                   : AC-3
  43. Format/Info                              : Audio Coding 3
  44. Commercial name                          : Dolby Digital
  45. Codec ID                                 : A_AC3
  46. Duration                                 : 2 h 34 min
  47. Bit rate mode                            : Constant
  48. Bit rate                                 : 224 kb/s
  49. Channel(s)                               : 2 channels
  50. Channel layout                           : L R
  51. Sampling rate                            : 44.1 kHz
  52. Frame rate                               : 28.711 FPS (1536 SPF)
  53. Compression mode                         : Lossy
  54. Stream size                              : 247 MiB (15%)
  55. Title                                    : [www.MoviezAddiction.space]
  56. Language                                 : Hindi
  57. Service kind                             : Complete Main
  58. Default                                  : Yes
  59. Forced                                   : No
  60.  
  61. Audio #2
  62. ID                                       : 5
  63. Format                                   : AAC LC
  64. Format/Info                              : Advanced Audio Codec Low Complexity
  65. Codec ID                                 : A_AAC-2
  66. Duration                                 : 2 h 34 min
  67. Bit rate                                 : 192 kb/s
  68. Channel(s)                               : 6 channels
  69. Channel layout                           : C L R Ls Rs LFE
  70. Sampling rate                            : 48.0 kHz
  71. Frame rate                               : 46.875 FPS (1024 SPF)
  72. Compression mode                         : Lossy
  73. Stream size                              : 209 MiB (13%)
  74. Title                                    : [www.MoviezAddiction.space]
  75. Language                                 : English
  76. Default                                  : No
  77. Forced                                   : No
  78.  
  79. Text #1
  80. ID                                       : 3
  81. Format                                   : UTF-8
  82. Codec ID                                 : S_TEXT/UTF8
  83. Codec ID/Info                            : UTF-8 Plain Text
  84. Duration                                 : 2 h 33 min
  85. Bit rate                                 : 22 b/s
  86. Count of elements                        : 734
  87. Stream size                              : 25.4 KiB (0%)
  88. Title                                    : [www.MoviezAddiction.space]
  89. Language                                 : English
  90. Default                                  : No
  91. Forced                                   : No
  92.  
  93. Text #2
  94. ID                                       : 4
  95. Format                                   : UTF-8
  96. Codec ID                                 : S_TEXT/UTF8
  97. Codec ID/Info                            : UTF-8 Plain Text
  98. Duration                                 : 2 h 33 min
  99. Bit rate                                 : 26 b/s
  100. Count of elements                        : 927
  101. Stream size                              : 29.7 KiB (0%)
  102. Title                                    : [www.MoviezAddiction.space]
  103. Language                                 : English
  104. Default                                  : No
  105. Forced                                   : No
  106.  
  107. Text #3
  108. ID                                       : 6
  109. Format                                   : PGS
  110. Muxing mode                              : zlib
  111. Codec ID                                 : S_HDMV/PGS
  112. Codec ID/Info                            : Picture based subtitle format used on BDs/HD-DVDs
  113. Duration                                 : 2 h 33 min
  114. Bit rate                                 : 18.8 kb/s
  115. Count of elements                        : 2168
  116. Stream size                              : 20.7 MiB (1%)
  117. Title                                    : [www.MoviezAddiction.space]
  118. Language                                 : English
  119. Default                                  : Yes
  120. Forced                                   : Yes