The text below is selected, press Ctrl+C to copy to your clipboard. (⌘+C on Mac) No line numbers will be copied.
Snatch (2000) 1080p BluRay x265...

20th January 2023 05:34:11 PM | Views: 12
  1. Format                                   : Matroska
  2. Format version                           : Version 4
  3. File size                                : 2.49 GiB
  4. Duration                                 : 1 h 42 min
  5. Overall bit rate                         : 3 471 kb/s
  6. Movie name                               : Snatch (2000) 1080p BluRay x265 10bit HEVC Dual Audio [Hindi DTH DD2.0 + English DTS 5.1] ESub 2.49GB [MoviezAddiction]
  7. Encoded date                             : UTC 2023-01-15 00:45:31
  8. Writing application                      : mkvmerge v72.0.0 ('Minuano (Six-eight)') 64-bit
  9. Writing library                          : libebml v1.4.4 + libmatroska v1.7.1
  10.  
  11. Video
  12. ID                                       : 1
  13. Format                                   : HEVC
  14. Format/Info                              : High Efficiency Video Coding
  15. Format profile                           : Main [email protected]@Main
  16. Codec ID                                 : V_MPEGH/ISO/HEVC
  17. Duration                                 : 1 h 42 min
  18. Bit rate                                 : 1 701 kb/s
  19. Width                                    : 1 920 pixels
  20. Height                                   : 1 040 pixels
  21. Display aspect ratio                     : 1.85:1
  22. Frame rate mode                          : Variable
  23. Frame rate                               : 23.976 (24000/1001) FPS
  24. Color space                              : YUV
  25. Chroma subsampling                       : 4:2:0
  26. Bit depth                                : 10 bits
  27. Bits/(Pixel*Frame)                       : 0.036
  28. Stream size                              : 1.22 GiB (49%)
  29. Default                                  : Yes
  30. Forced                                   : No
  31. Color range                              : Limited
  32. Color primaries                          : BT.709
  33. Transfer characteristics                 : BT.709
  34. Matrix coefficients                      : BT.709
  35.  
  36. Audio #1
  37. ID                                       : 2
  38. Format                                   : AC-3
  39. Format/Info                              : Audio Coding 3
  40. Commercial name                          : Dolby Digital
  41. Codec ID                                 : A_AC3
  42. Duration                                 : 1 h 42 min
  43. Bit rate mode                            : Constant
  44. Bit rate                                 : 224 kb/s
  45. Channel(s)                               : 2 channels
  46. Channel layout                           : L R
  47. Sampling rate                            : 48.0 kHz
  48. Frame rate                               : 31.250 FPS (1536 SPF)
  49. Compression mode                         : Lossy
  50. Delay relative to video                  : -41 ms
  51. Stream size                              : 165 MiB (6%)
  52. Title                                    : Hindi
  53. Language                                 : Hindi
  54. Service kind                             : Complete Main
  55. Default                                  : Yes
  56. Forced                                   : No
  57.  
  58. Audio #2
  59. ID                                       : 3
  60. Format                                   : DTS
  61. Format/Info                              : Digital Theater Systems
  62. Codec ID                                 : A_DTS
  63. Duration                                 : 1 h 42 min
  64. Bit rate mode                            : Constant
  65. Bit rate                                 : 1 509 kb/s
  66. Channel(s)                               : 6 channels
  67. Channel layout                           : C L R Ls Rs LFE
  68. Sampling rate                            : 48.0 kHz
  69. Frame rate                               : 93.750 FPS (512 SPF)
  70. Bit depth                                : 24 bits
  71. Compression mode                         : Lossy
  72. Delay relative to video                  : 4 s 200 ms
  73. Stream size                              : 1.08 GiB (43%)
  74. Title                                    : English
  75. Language                                 : English
  76. Default                                  : No
  77. Forced                                   : No
  78.  
  79. Text
  80. ID                                       : 4
  81. Format                                   : PGS
  82. Codec ID                                 : S_HDMV/PGS
  83. Codec ID/Info                            : Picture based subtitle format used on BDs/HD-DVDs
  84. Duration                                 : 1 h 38 min
  85. Bit rate                                 : 37.8 kb/s
  86. Count of elements                        : 2694
  87. Stream size                              : 26.7 MiB (1%)
  88. Title                                    : English [PGS]
  89. Language                                 : English
  90. Default                                  : Yes
  91. Forced                                   : No
  92.  
  93. Menu
  94. 00:00:00.041                             : en:Chapter 01
  95. 00:06:58.208                             : en:Chapter 02
  96. 00:11:53.670                             : en:Chapter 03
  97. 00:16:31.865                             : en:Chapter 04
  98. 00:22:48.032                             : en:Chapter 05
  99. 00:30:03.342                             : en:Chapter 06
  100. 00:36:28.060                             : en:Chapter 07
  101. 00:41:39.538                             : en:Chapter 08
  102. 00:48:16.517                             : en:Chapter 09
  103. 00:53:13.731                             : en:Chapter 10
  104. 00:59:06.417                             : en:Chapter 11
  105. 01:07:47.229                             : en:Chapter 12
  106. 01:13:24.649                             : en:Chapter 13
  107. 01:19:09.660                             : en:Chapter 14
  108. 01:28:12.703                             : en:Chapter 15
  109. 01:33:58.173                             : en:Chapter 16