The text below is selected, press Ctrl+C to copy to your clipboard. (⌘+C on Mac) No line numbers will be copied.
The Babysitter (2017) 720p 10bit

16th September 2020 09:20:51 AM | Views: 27
  1. Format                                   : Matroska
  2. Format version                           : Version 4
  3. File size                                : 697 MiB
  4. Duration                                 : 1 h 25 min
  5. Overall bit rate                         : 1 140 kb/s
  6. Movie name                               : The Babysitter (2017) 720p BluRay x265 10bit HEVC Dual Audio [Hindi DD5.1 + English BD5.1] ESub 697MB [www.MoviezAddiction.space]
  7. Encoded date                             : UTC 2020-09-13 08:01:43
  8. Writing application                      : mkvmerge v48.0.0 ('Fortress Around Your Heart') 64-bit
  9. Writing library                          : libebml v1.4.0 + libmatroska v1.6.0
  10.  
  11. Video
  12. ID                                       : 1
  13. Format                                   : HEVC
  14. Format/Info                              : High Efficiency Video Coding
  15. Format profile                           : Main [email protected]@Main
  16. Codec ID                                 : V_MPEGH/ISO/HEVC
  17. Duration                                 : 1 h 25 min
  18. Bit rate                                 : 701 kb/s
  19. Width                                    : 1 280 pixels
  20. Height                                   : 536 pixels
  21. Display aspect ratio                     : 2.40:1
  22. Frame rate mode                          : Constant
  23. Frame rate                               : 23.976 (24000/1001) FPS
  24. Color space                              : YUV
  25. Chroma subsampling                       : 4:2:0
  26. Bit depth                                : 10 bits
  27. Bits/(Pixel*Frame)                       : 0.043
  28. Stream size                              : 427 MiB (61%)
  29. Title                                    : [www.MoviezAddiction.space]
  30. Default                                  : Yes
  31. Forced                                   : No
  32. Color range                              : Limited
  33. Color primaries                          : BT.709
  34. Transfer characteristics                 : BT.709
  35. Matrix coefficients                      : BT.709
  36.  
  37. Audio #1
  38. ID                                       : 2
  39. Format                                   : AAC LC SBR
  40. Format/Info                              : Advanced Audio Codec Low Complexity with Spectral Band Replication
  41. Commercial name                          : HE-AAC
  42. Format settings                          : Explicit
  43. Codec ID                                 : A_AAC-2
  44. Duration                                 : 1 h 25 min
  45. Bit rate                                 : 192 kb/s
  46. Channel(s)                               : 6 channels
  47. Channel layout                           : C L R Ls Rs LFE
  48. Sampling rate                            : 48.0 kHz
  49. Frame rate                               : 23.438 FPS (2048 SPF)
  50. Compression mode                         : Lossy
  51. Stream size                              : 116 MiB (17%)
  52. Title                                    : [www.MoviezAddiction.space] - English
  53. Language                                 : English
  54. Default                                  : No
  55. Forced                                   : No
  56.  
  57. Audio #2
  58. ID                                       : 3
  59. Format                                   : AAC LC SBR
  60. Format/Info                              : Advanced Audio Codec Low Complexity with Spectral Band Replication
  61. Commercial name                          : HE-AAC
  62. Format settings                          : Explicit
  63. Codec ID                                 : A_AAC-2
  64. Duration                                 : 1 h 25 min
  65. Bit rate                                 : 192 kb/s
  66. Channel(s)                               : 6 channels
  67. Channel layout                           : C L R Ls Rs LFE
  68. Sampling rate                            : 48.0 kHz
  69. Frame rate                               : 23.438 FPS (2048 SPF)
  70. Compression mode                         : Lossy
  71. Stream size                              : 117 MiB (17%)
  72. Title                                    : [www.MoviezAddiction.space] - Hindi
  73. Language                                 : Hindi
  74. Default                                  : Yes
  75. Forced                                   : Yes
  76.  
  77. Text
  78. ID                                       : 4
  79. Format                                   : PGS
  80. Codec ID                                 : S_HDMV/PGS
  81. Codec ID/Info                            : Picture based subtitle format used on BDs/HD-DVDs
  82. Duration                                 : 1 h 21 min
  83. Bit rate                                 : 62.0 kb/s
  84. Count of elements                        : 2611
  85. Stream size                              : 35.9 MiB (5%)
  86. Title                                    : [www.MoviezAddiction.space] - English [PGS]
  87. Language                                 : English
  88. Default                                  : Yes
  89. Forced                                   : Yes
  90.  
  91. Menu
  92. 00:00:00.000                             : en:Chapter 01
  93. 00:10:39.222                             : en:Chapter 02
  94. 00:21:19.945                             : en:Chapter 03
  95. 00:31:58.083                             : en:Chapter 04
  96. 00:42:38.014                             : en:Chapter 05
  97. 00:53:16.276                             : en:Chapter 06
  98. 01:03:57.208                             : en:Chapter 07
  99. 01:14:36.973                             : en:Chapter 08