The text below is selected, press Ctrl+C to copy to your clipboard. (⌘+C on Mac) No line numbers will be copied.
The Croods (2013) 1080p BluRay...

23rd November 2022 04:27:18 AM | Views: 25
  1. Format                                   : Matroska
  2. Format version                           : Version 4
  3. File size                                : 5.77 GiB
  4. Duration                                 : 1 h 38 min
  5. Overall bit rate mode                    : Variable
  6. Overall bit rate                         : 8 371 kb/s
  7. Movie name                               : The Croods (2013) 1080p BluRay x264 Dual Audio [Hindi DTS 5.1 + English DTS-X 7.1] ESub 5.76GB [MoviezAddiction.life]
  8. Encoded date                             : UTC 2022-11-23 00:14:57
  9. Writing application                      : mkvmerge v72.0.0 ('Minuano (Six-eight)') 64-bit
  10. Writing library                          : libebml v1.4.4 + libmatroska v1.7.1
  11.  
  12. Video
  13. ID                                       : 1
  14. Format                                   : AVC
  15. Format/Info                              : Advanced Video Codec
  16. Format profile                           : [email protected]
  17. Format settings                          : CABAC / 5 Ref Frames
  18. Format settings, CABAC                   : Yes
  19. Format settings, Reference frames        : 5 frames
  20. Codec ID                                 : V_MPEG4/ISO/AVC
  21. Duration                                 : 1 h 38 min
  22. Bit rate                                 : 4 000 kb/s
  23. Width                                    : 1 920 pixels
  24. Height                                   : 816 pixels
  25. Display aspect ratio                     : 2.35:1
  26. Frame rate mode                          : Variable
  27. Frame rate                               : 23.976 FPS
  28. Color space                              : YUV
  29. Chroma subsampling                       : 4:2:0
  30. Bit depth                                : 8 bits
  31. Scan type                                : Progressive
  32. Bits/(Pixel*Frame)                       : 0.106
  33. Stream size                              : 2.76 GiB (48%)
  34. Default                                  : Yes
  35. Forced                                   : No
  36.  
  37. Audio #1
  38. ID                                       : 2
  39. Format                                   : DTS
  40. Format/Info                              : Digital Theater Systems
  41. Codec ID                                 : A_DTS
  42. Duration                                 : 1 h 38 min
  43. Bit rate mode                            : Constant
  44. Bit rate                                 : 768 kb/s
  45. Channel(s)                               : 6 channels
  46. Channel layout                           : C L R Ls Rs LFE
  47. Sampling rate                            : 48.0 kHz
  48. Frame rate                               : 93.750 FPS (512 SPF)
  49. Bit depth                                : 24 bits
  50. Compression mode                         : Lossy
  51. Delay relative to video                  : -1 s 708 ms
  52. Stream size                              : 542 MiB (9%)
  53. Title                                    : Hindi
  54. Language                                 : Hindi
  55. Default                                  : Yes
  56. Forced                                   : No
  57.  
  58. Audio #2
  59. ID                                       : 3
  60. Format                                   : DTS XLL X
  61. Format/Info                              : Digital Theater Systems
  62. Commercial name                          : DTS-HD Master Audio
  63. Codec ID                                 : A_DTS
  64. Duration                                 : 1 h 38 min
  65. Bit rate mode                            : Variable
  66. Bit rate                                 : 3 579 kb/s
  67. Channel(s)                               : 8 channels
  68. Channel(s)_Original                      : Object Based
  69. ChannelLayout_Original                   : Object Based
  70. Sampling rate                            : 48.0 kHz
  71. Frame rate                               : 93.750 FPS (512 SPF)
  72. Bit depth                                : 24 bits
  73. Delay relative to video                  : -1 s 708 ms
  74. Stream size                              : 2.46 GiB (43%)
  75. Title                                    : English
  76. Language                                 : English
  77. Default                                  : No
  78. Forced                                   : No
  79.  
  80. Text
  81. ID                                       : 4
  82. Format                                   : PGS
  83. Codec ID                                 : S_HDMV/PGS
  84. Codec ID/Info                            : Picture based subtitle format used on BDs/HD-DVDs
  85. Duration                                 : 1 h 28 min
  86. Bit rate                                 : 25.1 kb/s
  87. Frame rate                               : 0.383 FPS
  88. Count of elements                        : 2042
  89. Stream size                              : 15.9 MiB (0%)
  90. Title                                    : English [PGS]
  91. Language                                 : English
  92. Default                                  : Yes
  93. Forced                                   : No
  94.  
  95. Menu
  96. 00:00:01.708                             : en:Chapter 1
  97. 00:02:38.364                             : en:Chapter 2
  98. 00:04:55.126                             : en:Chapter 3
  99. 00:09:04.625                             : en:Chapter 4
  100. 00:12:17.735                             : en:Chapter 5
  101. 00:14:08.179                             : en:Chapter 6
  102. 00:18:36.405                             : en:Chapter 7
  103. 00:22:00.359                             : en:Chapter 8
  104. 00:23:28.113                             : en:Chapter 9
  105. 00:26:53.151                             : en:Chapter 10
  106. 00:28:40.508                             : en:Chapter 11
  107. 00:30:29.033                             : en:Chapter 12
  108. 00:32:52.010                             : en:Chapter 13
  109. 00:36:06.746                             : en:Chapter 14
  110. 00:38:36.938                             : en:Chapter 15
  111. 00:41:37.910                             : en:Chapter 16
  112. 00:44:42.219                             : en:Chapter 17
  113. 00:48:06.006                             : en:Chapter 18
  114. 00:52:14.337                             : en:Chapter 19
  115. 00:55:20.857                             : en:Chapter 20
  116. 01:00:18.154                             : en:Chapter 21
  117. 01:04:01.461                             : en:Chapter 22
  118. 01:05:52.113                             : en:Chapter 23
  119. 01:08:47.413                             : en:Chapter 24
  120. 01:10:50.661                             : en:Chapter 25
  121. 01:12:40.521                             : en:Chapter 26
  122. 01:14:05.022                             : en:Chapter 27
  123. 01:19:51.952                             : en:Chapter 28
  124. 01:23:13.236                             : en:Chapter 29
  125. 01:25:20.113                             : en:Chapter 30
  126. 01:28:07.697                             : en:Chapter 31
  127. 01:30:05.606                             : en:Chapter 32