The text below is selected, press Ctrl+C to copy to your clipboard. (⌘+C on Mac) No line numbers will be copied.
MediaInfo

25th February 2019 05:55:10 AM | Views: 1082
  1. Format                      : Matroska
  2. Format version              : Version 4
  3. File size                   : 5.40 GiB
  4. Duration                    : 3 h 48 min
  5. Overall bit rate            : 3 389 kb/s
  6. Movie name                  : The.Lord.of.the.Rings.The.Fellowship.of.the.Ring.2001.EXTENDED.1080p.BluRay.10bit.HEVC.6CH.MkvCage.ws
  7. Encoded date                : UTC 2019-02-24 17:21:26
  8. Writing application         : mkvmerge v30.1.0 ('Forever And More') 64-bit
  9. Writing library             : libebml v1.3.6 + libmatroska v1.4.9
  10. Cover                       : Yes
  11. Attachments                 : cover.jpg
  12.  
  13. Video
  14. ID                          : 1
  15. Format                      : HEVC
  16. Format/Info                 : High Efficiency Video Coding
  17. Format profile              : Main [email protected]@Main
  18. Codec ID                    : V_MPEGH/ISO/HEVC
  19. Duration                    : 3 h 48 min
  20. Bit rate                    : 3 195 kb/s
  21. Width                       : 1 920 pixels
  22. Height                      : 800 pixels
  23. Display aspect ratio        : 2.40:1
  24. Frame rate mode             : Constant
  25. Frame rate                  : 23.976 (24000/1001) FPS
  26. Color space                 : YUV
  27. Chroma subsampling          : 4:2:0
  28. Bit depth                   : 10 bits
  29. Bits/(Pixel*Frame)          : 0.087
  30. Stream size                 : 5.09 GiB (94%)
  31. Writing library             : x265 2.9+2-7e978ed93d60:[Windows][GCC 8.2.0][64 bit] 10bit
  32. Encoding settings           : cpuid=1111039 / frame-threads=5 / numa-pools=24,24 / wpp / no-pmode / no-pme / no-psnr / no-ssim / log-level=2 / input-csp=1 / input-res=1920x800 / interlace=0 / total-frames=328249 / level-idc=0 / high-tier=1 / uhd-bd=0 / ref=3 / no-allow-non-conformance / no-repeat-headers / annexb / no-aud / no-hrd / info / hash=0 / no-temporal-layers / open-gop / min-keyint=23 / keyint=250 / gop-lookahead=0 / bframes=4 / b-adapt=2 / b-pyramid / bframe-bias=0 / rc-lookahead=20 / lookahead-slices=5 / scenecut=40 / radl=0 / no-intra-refresh / ctu=64 / min-cu-size=8 / no-rect / no-amp / max-tu-size=32 / tu-inter-depth=1 / tu-intra-depth=1 / limit-tu=0 / rdoq-level=2 / dynamic-rd=0.00 / no-ssim-rd / signhide / no-tskip / nr-intra=0 / nr-inter=0 / no-constrained-intra / no-strong-intra-smoothing / max-merge=2 / limit-refs=3 / no-limit-modes / me=1 / subme=2 / merange=57 / temporal-mvp / weightp / no-weightb / no-analyze-src-pics / deblock=-2:-2 / no-sao / no-sao-non-deblock / rd=3 / no-early-skip / rskip / no-fast-intra / no-tskip-fast / no-cu-lossless / no-b-intra / no-splitrd-skip / rdpenalty=0 / psy-rd=2.00 / psy-rdoq=0.00 / no-rd-refine / no-lossless / cbqpoffs=0 / crqpoffs=0 / rc=abr / bitrate=3195 / qcomp=0.60 / qpstep=4 / stats-write=0 / stats-read=2 / cplxblur=20.0 / qblur=0.5 / ipratio=1.40 / pbratio=1.30 / aq-mode=1 / aq-strength=1.00 / cutree / zone-count=0 / no-strict-cbr / qg-size=32 / no-rc-grain / qpmax=69 / qpmin=0 / no-const-vbv / sar=0 / overscan=0 / videoformat=5 / range=0 / colorprim=2 / transfer=2 / colormatrix=2 / chromaloc=0 / display-window=0 / max-cll=0,0 / min-luma=0 / max-luma=1023 / log2-max-poc-lsb=8 / vui-timing-info / vui-hrd-info / slices=1 / no-opt-qp-pps / no-opt-ref-list-length-pps / no-multi-pass-opt-rps / scenecut-bias=0.05 / no-opt-cu-delta-qp / no-aq-motion / no-hdr / no-hdr-opt / no-dhdr10-opt / no-idr-recovery-sei / analysis-reuse-level=5 / scale-factor=0 / refine-intra=0 / refine-inter=0 / refine-mv=0 / no-limit-sao / ctu-info=0 / no-lowpass-dct / refine-mv-type=0 / copy-pic=1 / max-ausize-factor=1.0 / no-dynamic-refine / no-single-sei
  33. Default                     : Yes
  34. Forced                      : No
  35.  
  36. Audio
  37. ID                          : 2
  38. Format                      : AAC LC SBR
  39. Format/Info                 : Advanced Audio Codec Low Complexity with Spectral Band Replication
  40. Commercial name             : HE-AAC
  41. Format settings             : Explicit
  42. Codec ID                    : A_AAC-2
  43. Duration                    : 3 h 48 min
  44. Bit rate                    : 192 kb/s
  45. Channel(s)                  : 6 channels
  46. Channel layout              : C L R Ls Rs LFE
  47. Sampling rate               : 48.0 kHz
  48. Frame rate                  : 23.438 FPS (2048 SPF)
  49. Compression mode            : Lossy
  50. Delay relative to video     : 43 ms
  51. Stream size                 : 313 MiB (6%)
  52. Language                    : English
  53. Default                     : Yes
  54. Forced                      : No
  55.  
  56. Text #1
  57. ID                          : 3
  58. Format                      : UTF-8
  59. Codec ID                    : S_TEXT/UTF8
  60. Codec ID/Info               : UTF-8 Plain Text
  61. Duration                    : 3 h 19 min
  62. Bit rate                    : 42 b/s
  63. Count of elements           : 1874
  64. Stream size                 : 61.8 KiB (0%)
  65. Title                       : HI
  66. Language                    : English
  67. Default                     : Yes
  68. Forced                      : No
  69.  
  70. Text #2
  71. ID                          : 4
  72. Format                      : UTF-8
  73. Codec ID                    : S_TEXT/UTF8
  74. Codec ID/Info               : UTF-8 Plain Text
  75. Duration                    : 3 h 19 min
  76. Bit rate                    : 40 b/s
  77. Count of elements           : 1790
  78. Stream size                 : 58.6 KiB (0%)
  79. Language                    : English
  80. Default                     : No
  81. Forced                      : No
  82.  
  83. Text #3
  84. ID                          : 5
  85. Format                      : UTF-8
  86. Codec ID                    : S_TEXT/UTF8
  87. Codec ID/Info               : UTF-8 Plain Text
  88. Duration                    : 2 h 59 min
  89. Bit rate                    : 1 b/s
  90. Count of elements           : 72
  91. Stream size                 : 2.30 KiB (0%)
  92. Title                       : Foreign Parts
  93. Language                    : English
  94. Default                     : No
  95. Forced                      : No
  96.  
  97. Menu
  98. 00:00:00.000                : en:Prologue: One Ring to Rule Them All...
  99. 00:07:36.790                : en:Concerning Hobbits
  100. 00:10:35.552                : en:The Shire
  101. 00:15:39.856                : en:Very Old Friends
  102. 00:19:58.489                : en:A Long-expected Party
  103. 00:25:32.614                : en:Farewell Dear Bilbo
  104. 00:29:57.379                : en:Keep It Secret, Keep It Safe
  105. 00:32:10.679                : en:The Account of Isildur
  106. 00:34:51.798                : en:At The Green Dragon
  107. 00:36:18.176                : en:The Shadow of the Past
  108. 00:45:04.160                : en:The Passing of the Elves
  109. 00:46:44.301                : en:Saruman the White
  110. 00:51:21.412                : en:A Short Cut to Mushrooms
  111. 00:55:12.434                : en:Bucklebury Ferry
  112. 00:57:30.072                : en:At the Sign of The Prancing Pony
  113. 01:03:31.516                : en:The Nazgûl
  114. 01:07:16.115                : en:The Midgewater Marshes
  115. 01:08:53.588                : en:The Spoiling of Isengard
  116. 01:10:35.940                : en:A Knife in the Dark
  117. 01:15:15.386                : en:The Caverns of Isengard
  118. 01:17:46.620                : en:Flight to the Ford
  119. 01:24:11.546                : en:Rivendell
  120. 01:26:12.501                : en:Many Meetings
  121. 01:29:41.585                : en:The Fate of the Ring
  122. 01:33:14.672                : en:The Sword That Was Broken
  123. 01:35:54.081                : en:The Evenstar
  124. 01:37:32.972                : en:The Council of Elrond
  125. 01:45:38.374                : en:Gilraen's Memorial
  126. 01:46:52.197                : en:Bilbo's Gifts
  127. 01:48:35.592                : en:The Departure of the Fellowship
  128. 01:49:53.003                : en:The Ring Goes South
  129. 01:52:58.814                : en:The Pass of Caradhras
  130. 01:57:45.100                : en:Moria
  131. 02:04:10.485                : en:A Journey in the Dark
  132. 02:10:40.833                : en:Balin's Tomb
  133. 02:20:05.564                : en:The Bridge of Khazad-dûm
  134. 02:29:47.020                : en:Lothlórien
  135. 02:32:59.670                : en:Caras Galadhon
  136. 02:40:16.690                : en:The Mirror of Galadriel
  137. 02:45:56.697                : en:The Fighting Uruk-hai
  138. 02:47:38.048                : en:Farewell to Lórien
  139. 02:53:00.578                : en:The Great River
  140. 02:57:52.829                : en:Parth Galen
  141. 03:04:20.591                : en:The Breaking of the Fellowship
  142. 03:11:36.527                : en:The Departure of Boromir
  143. 03:14:18.855                : en:The Road Goes Ever On...
  144. 03:20:37.025                : en:Credits