The text below is selected, press Ctrl+C to copy to your clipboard. (⌘+C on Mac) No line numbers will be copied.
The Book of Boba Fett...

6th January 2022 07:57:25 AM | Views: 19
  1. Format                                   : Matroska
  2. Format version                           : Version 4
  3. File size                                : 401 MiB
  4. Duration                                 : 37 min 43 s
  5. Overall bit rate                         : 1 485 kb/s
  6. Movie name                               : The Book of Boba Fett (2021) S01E01 [Stranger in a Strange Land] 720p DS4K WEB-DL x264 Dual Audio [Hindi DDP5.1 + English DD5.1] ESub 400MB [www.MoviezAddiction.art]
  7. Encoded date                             : UTC 2021-12-29 12:59:35
  8. Writing application                      : mkvmerge v47.0.0 ('Black Flag') 64-bit
  9. Writing library                          : libebml v1.3.10 + libmatroska v1.5.2
  10.  
  11. Video
  12. ID                                       : 1
  13. Format                                   : AVC
  14. Format/Info                              : Advanced Video Codec
  15. Format profile                           : [email protected]
  16. Format settings                          : CABAC / 4 Ref Frames
  17. Format settings, CABAC                   : Yes
  18. Format settings, Reference frames        : 4 frames
  19. Codec ID                                 : V_MPEG4/ISO/AVC
  20. Duration                                 : 37 min 43 s
  21. Bit rate                                 : 1 099 kb/s
  22. Width                                    : 1 280 pixels
  23. Height                                   : 536 pixels
  24. Display aspect ratio                     : 2.40:1
  25. Frame rate mode                          : Variable
  26. Frame rate                               : 24.000 FPS
  27. Color space                              : YUV
  28. Chroma subsampling                       : 4:2:0
  29. Bit depth                                : 8 bits
  30. Scan type                                : Progressive
  31. Bits/(Pixel*Frame)                       : 0.067
  32. Stream size                              : 297 MiB (74%)
  33. Title                                    : [www.MoviezAddiction.art]
  34. Default                                  : Yes
  35. Forced                                   : No
  36. Color range                              : Limited
  37. Color primaries                          : BT.709
  38. Transfer characteristics                 : BT.709
  39. Matrix coefficients                      : BT.709
  40.  
  41. Audio #1
  42. ID                                       : 2
  43. Format                                   : E-AC-3
  44. Format/Info                              : Enhanced AC-3
  45. Commercial name                          : Dolby Digital Plus
  46. Codec ID                                 : A_EAC3
  47. Duration                                 : 37 min 43 s
  48. Bit rate mode                            : Constant
  49. Bit rate                                 : 192 kb/s
  50. Channel(s)                               : 6 channels
  51. Channel layout                           : L R C LFE Ls Rs
  52. Sampling rate                            : 48.0 kHz
  53. Frame rate                               : 31.250 FPS (1536 SPF)
  54. Compression mode                         : Lossy
  55. Stream size                              : 51.8 MiB (13%)
  56. Title                                    : [www.MoviezAddiction.art] - Hindi
  57. Language                                 : Hindi
  58. Service kind                             : Complete Main
  59. Default                                  : Yes
  60. Forced                                   : No
  61.  
  62. Audio #2
  63. ID                                       : 3
  64. Format                                   : AAC LC SBR
  65. Format/Info                              : Advanced Audio Codec Low Complexity with Spectral Band Replication
  66. Commercial name                          : HE-AAC
  67. Format settings                          : Explicit
  68. Codec ID                                 : A_AAC-2
  69. Duration                                 : 37 min 40 s
  70. Bit rate                                 : 192 kb/s
  71. Channel(s)                               : 6 channels
  72. Channel layout                           : C L R Ls Rs LFE
  73. Sampling rate                            : 48.0 kHz
  74. Frame rate                               : 23.438 FPS (2048 SPF)
  75. Compression mode                         : Lossy
  76. Stream size                              : 51.4 MiB (13%)
  77. Title                                    : [www.MoviezAddiction.art] - English
  78. Language                                 : English
  79. Default                                  : No
  80. Forced                                   : No
  81.  
  82. Text
  83. ID                                       : 4
  84. Format                                   : UTF-8
  85. Codec ID                                 : S_TEXT/UTF8
  86. Codec ID/Info                            : UTF-8 Plain Text
  87. Duration                                 : 33 min 30 s
  88. Bit rate                                 : 29 b/s
  89. Count of elements                        : 261
  90. Stream size                              : 7.20 KiB (0%)
  91. Title                                    : [www.MoviezAddiction.art] - English [SRT]
  92. Language                                 : English
  93. Default                                  : Yes
  94. Forced                                   : No