The text below is selected, press Ctrl+C to copy to your clipboard. (⌘+C on Mac) No line numbers will be copied.
Sing (2016) 720p Bluray x264

15th September 2020 06:04:59 PM | Views: 19
  1. Format                                   : Matroska
  2. Format version                           : Version 4
  3. File size                                : 1.17 GiB
  4. Duration                                 : 1 h 48 min
  5. Overall bit rate                         : 1 543 kb/s
  6. Movie name                               : Sing (2016) 720p Bluray x264 Dual Audio [ Hindi DD5.1 + English DD5.1 ] ESub [www.MoviezAddiction.space]
  7. Encoded date                             : UTC 2020-09-15 15:58:44
  8. Writing application                      : mkvmerge v48.0.0 ('Fortress Around Your Heart') 64-bit
  9. Writing library                          : libebml v1.4.0 + libmatroska v1.6.0
  10.  
  11. Video
  12. ID                                       : 1
  13. Format                                   : AVC
  14. Format/Info                              : Advanced Video Codec
  15. Format profile                           : [email protected]
  16. Format settings                          : CABAC / 4 Ref Frames
  17. Format settings, CABAC                   : Yes
  18. Format settings, Reference frames        : 4 frames
  19. Codec ID                                 : V_MPEG4/ISO/AVC
  20. Duration                                 : 1 h 47 min
  21. Bit rate                                 : 1 150 kb/s
  22. Width                                    : 1 280 pixels
  23. Height                                   : 696 pixels
  24. Display aspect ratio                     : 1.85:1
  25. Frame rate mode                          : Constant
  26. Frame rate                               : 23.976 (24000/1001) FPS
  27. Color space                              : YUV
  28. Chroma subsampling                       : 4:2:0
  29. Bit depth                                : 8 bits
  30. Scan type                                : Progressive
  31. Bits/(Pixel*Frame)                       : 0.054
  32. Stream size                              : 887 MiB (74%)
  33. Title                                    : [www.MoviezAddiction.space]
  34. Writing library                          : x264 core 160 r3000 33f9e14
  35. Encoding settings                        : cabac=1 / ref=3 / deblock=1:0:0 / analyse=0x3:0x113 / me=hex / subme=7 / psy=1 / psy_rd=1.00:0.00 / mixed_ref=1 / me_range=16 / chroma_me=1 / trellis=1 / 8x8dct=1 / cqm=0 / deadzone=21,11 / fast_pskip=1 / chroma_qp_offset=-2 / threads=12 / lookahead_threads=2 / sliced_threads=0 / nr=0 / decimate=1 / interlaced=0 / bluray_compat=0 / constrained_intra=0 / bframes=3 / b_pyramid=2 / b_adapt=1 / b_bias=0 / direct=1 / weightb=1 / open_gop=0 / weightp=2 / keyint=250 / keyint_min=23 / scenecut=40 / intra_refresh=0 / rc_lookahead=40 / rc=2pass / mbtree=1 / bitrate=1150 / ratetol=1.0 / qcomp=0.60 / qpmin=0 / qpmax=69 / qpstep=4 / cplxblur=20.0 / qblur=0.5 / ip_ratio=1.40 / aq=1:1.00
  36. Default                                  : Yes
  37. Forced                                   : No
  38.  
  39. Audio #1
  40. ID                                       : 3
  41. Format                                   : AAC LC
  42. Format/Info                              : Advanced Audio Codec Low Complexity
  43. Codec ID                                 : A_AAC-2
  44. Duration                                 : 1 h 48 min
  45. Bit rate                                 : 192 kb/s
  46. Channel(s)                               : 6 channels
  47. Channel layout                           : C L R Ls Rs LFE
  48. Sampling rate                            : 48.0 kHz
  49. Frame rate                               : 46.875 FPS (1024 SPF)
  50. Compression mode                         : Lossy
  51. Delay relative to video                  : 40 ms
  52. Stream size                              : 146 MiB (12%)
  53. Title                                    : [www.MoviezAddiction.space]
  54. Language                                 : Hindi
  55. Default                                  : Yes
  56. Forced                                   : Yes
  57.  
  58. Audio #2
  59. ID                                       : 4
  60. Format                                   : AAC LC
  61. Format/Info                              : Advanced Audio Codec Low Complexity
  62. Codec ID                                 : A_AAC-2
  63. Duration                                 : 1 h 47 min
  64. Bit rate                                 : 192 kb/s
  65. Channel(s)                               : 6 channels
  66. Channel layout                           : C L R Ls Rs LFE
  67. Sampling rate                            : 48.0 kHz
  68. Frame rate                               : 46.875 FPS (1024 SPF)
  69. Compression mode                         : Lossy
  70. Stream size                              : 146 MiB (12%)
  71. Title                                    : [www.MoviezAddiction.space]
  72. Language                                 : English
  73. Default                                  : No
  74. Forced                                   : No
  75.  
  76. Text
  77. ID                                       : 2
  78. Format                                   : PGS
  79. Muxing mode                              : zlib
  80. Codec ID                                 : S_HDMV/PGS
  81. Codec ID/Info                            : Picture based subtitle format used on BDs/HD-DVDs
  82. Duration                                 : 1 h 39 min
  83. Bit rate                                 : 48.1 kb/s
  84. Count of elements                        : 3466
  85. Stream size                              : 34.0 MiB (3%)
  86. Title                                    : [www.MoviezAddiction.space]
  87. Language                                 : English
  88. Default                                  : Yes
  89. Forced                                   : Yes
  90.  
  91. Menu
  92. 00:00:00.000                             : en:00:00:00.000
  93. 00:04:29.352                             : en:00:04:29.352
  94. 00:10:36.469                             : en:00:10:36.469
  95. 00:14:04.677                             : en:00:14:04.677
  96. 00:18:32.653                             : en:00:18:32.653
  97. 00:25:14.722                             : en:00:25:14.722
  98. 00:30:04.052                             : en:00:30:04.052
  99. 00:35:11.776                             : en:00:35:11.776
  100. 00:40:07.405                             : en:00:40:07.405
  101. 00:44:36.132                             : en:00:44:36.132
  102. 00:50:26.649                             : en:00:50:26.649
  103. 00:55:36.208                             : en:00:55:36.208
  104. 01:04:40.710                             : en:01:04:40.710
  105. 01:14:03.981                             : en:01:14:03.981
  106. 01:19:17.962                             : en:01:19:17.962
  107. 01:23:59.159                             : en:01:23:59.159
  108. 01:26:56.461                             : en:01:26:56.461
  109. 01:30:38.266                             : en:01:30:38.266
  110. 01:34:47.181                             : en:01:34:47.181
  111. 01:40:16.010                             : en:01:40:16.010