The text below is selected, press Ctrl+C to copy to your clipboard. (⌘+C on Mac) No line numbers will be copied.
The Wretched

17th September 2020 08:59:13 PM | Views: 42
  1. General
  2. Unique ID                                : 199811706878627190403960897494739838829 (0x965255BF6478DA4D852849E16FB3E76D)
  3. Complete name                            :  The Wretched 2019 1080p BluRay x264 (Hindi DD 2.0 + English DD DD 5.1) ~LustMovies.pro~ (3.9 G).mkv
  4. Format                                   : Matroska
  5. Format version                           : Version 4
  6. File size                                : 3.93 GiB
  7. Duration                                 : 1 h 38 min
  8. Overall bit rate                         : 5 695 kb/s
  9. Movie name                               : LustMovies.pro | The Wretched 2019
  10. Encoded date                             : UTC 2020-09-17 10:29:15
  11. Writing application                      : mkvmerge v8.2.0 ('World of Adventure') 32bit
  12. Writing library                          : libebml v1.3.1 + libmatroska v1.4.2
  13.  
  14. Video
  15. ID                                       : 1
  16. Format                                   : AVC
  17. Format/Info                              : Advanced Video Codec
  18. Format profile                           : [email protected]
  19. Format settings                          : CABAC / 5 Ref Frames
  20. Format settings, CABAC                   : Yes
  21. Format settings, Reference frames        : 5 frames
  22. Codec ID                                 : V_MPEG4/ISO/AVC
  23. Duration                                 : 1 h 38 min
  24. Bit rate                                 : 4 718 kb/s
  25. Nominal bit rate                         : 5 000 kb/s
  26. Width                                    : 1 920 pixels
  27. Height                                   : 804 pixels
  28. Display aspect ratio                     : 2.40:1
  29. Frame rate mode                          : Constant
  30. Frame rate                               : 23.976 (24000/1001) FPS
  31. Color space                              : YUV
  32. Chroma subsampling                       : 4:2:0
  33. Bit depth                                : 8 bits
  34. Scan type                                : Progressive
  35. Bits/(Pixel*Frame)                       : 0.127
  36. Stream size                              : 3.26 GiB (83%)
  37. Title                                    : LustMovies.pro
  38. Writing library                          : x264 core 157 r2969 d4099dd
  39. Encoding settings                        : cabac=1 / ref=5 / deblock=1:-1:-1 / analyse=0x1:0x111 / me=umh / subme=9 / psy=1 / psy_rd=1.00:0.15 / mixed_ref=1 / me_range=18 / chroma_me=1 / trellis=2 / 8x8dct=0 / cqm=0 / deadzone=21,11 / fast_pskip=1 / chroma_qp_offset=-3 / threads=18 / lookahead_threads=1 / sliced_threads=0 / nr=1000 / decimate=1 / interlaced=0 / bluray_compat=0 / constrained_intra=0 / bframes=3 / b_pyramid=2 / b_adapt=1 / b_bias=0 / direct=3 / weightb=1 / open_gop=0 / weightp=2 / keyint=240 / keyint_min=23 / scenecut=40 / intra_refresh=0 / rc_lookahead=50 / rc=2pass / mbtree=1 / bitrate=5000 / ratetol=1.0 / qcomp=0.60 / qpmin=0 / qpmax=69 / qpstep=4 / cplxblur=20.0 / qblur=0.5 / vbv_maxrate=50000 / vbv_bufsize=62500 / nal_hrd=none / filler=0 / ip_ratio=1.40 / aq=1:1.00
  40. Language                                 : English
  41. Default                                  : Yes
  42. Forced                                   : Yes
  43. Color range                              : Limited
  44. Color primaries                          : Generic film
  45. Transfer characteristics                 : BT.709
  46. Matrix coefficients                      : BT.709
  47. Duration_Source                          : General_Duration
  48.  
  49. Audio #1
  50. ID                                       : 2
  51. Format                                   : AC-3
  52. Format/Info                              : Audio Coding 3
  53. Commercial name                          : Dolby Digital
  54. Codec ID                                 : A_AC3
  55. Duration                                 : 1 h 38 min
  56. Bit rate mode                            : Constant
  57. Bit rate                                 : 224 kb/s
  58. Channel(s)                               : 2 channels
  59. Channel layout                           : L R
  60. Sampling rate                            : 48.0 kHz
  61. Frame rate                               : 31.250 FPS (1536 SPF)
  62. Compression mode                         : Lossy
  63. Delay relative to video                  : 21 ms
  64. Stream size                              : 158 MiB (4%)
  65. Title                                    : LustMovies.pro
  66. Language                                 : Hindi
  67. Service kind                             : Complete Main
  68. Default                                  : Yes
  69. Forced                                   : Yes
  70. Duration_Source                          : General_Duration
  71.  
  72. Audio #2
  73. ID                                       : 3
  74. Format                                   : AC-3
  75. Format/Info                              : Audio Coding 3
  76. Commercial name                          : Dolby Digital
  77. Codec ID                                 : A_AC3
  78. Duration                                 : 1 h 38 min
  79. Bit rate mode                            : Constant
  80. Bit rate                                 : 640 kb/s
  81. Channel(s)                               : 6 channels
  82. Channel layout                           : L R C LFE Ls Rs
  83. Sampling rate                            : 48.0 kHz
  84. Frame rate                               : 31.250 FPS (1536 SPF)
  85. Compression mode                         : Lossy
  86. Stream size                              : 453 MiB (11%)
  87. Title                                    : LustMovies.pro
  88. Language                                 : English
  89. Service kind                             : Complete Main
  90. Default                                  : No
  91. Forced                                   : No
  92. Duration_Source                          : General_Duration
  93.  
  94. Text
  95. ID                                       : 4
  96. Format                                   : PGS
  97. Muxing mode                              : zlib
  98. Codec ID                                 : S_HDMV/PGS
  99. Codec ID/Info                            : Picture based subtitle format used on BDs/HD-DVDs
  100. Title                                    : LustMovies.pro
  101. Language                                 : English
  102. Default                                  : Yes
  103. Forced                                   : No
  104.  
  105. General
  106. Unique ID                                : 56895948687122323872029814541215730467 (0x2ACDC2D95B0F797ED1ED686134CE0B23)
  107. Complete name                            :  The Wretched 2019 720p BluRay x264 (Hindi DD 2.0 + English DD 5.1) ~LustMovies.pro~ (954.7 M).mkv
  108. Format                                   : Matroska
  109. Format version                           : Version 4
  110. File size                                : 955 MiB
  111. Duration                                 : 1 h 38 min
  112. Overall bit rate                         : 1 350 kb/s
  113. Movie name                               : LustMovies.pro | The Wretched 2019
  114. Encoded date                             : UTC 2020-09-17 17:47:07
  115. Writing application                      : HandBrake 1.1.0 2018042400
  116. Writing library                          : Lavf57.83.100
  117. ErrorDetectionType                       : Per level 1
  118.  
  119. Video
  120. ID                                       : 1
  121. Format                                   : AVC
  122. Format/Info                              : Advanced Video Codec
  123. Format profile                           : [email protected]
  124. Format settings                          : CABAC / 4 Ref Frames
  125. Format settings, CABAC                   : Yes
  126. Format settings, Reference frames        : 4 frames
  127. Codec ID                                 : V_MPEG4/ISO/AVC
  128. Duration                                 : 1 h 38 min
  129. Bit rate                                 : 950 kb/s
  130. Width                                    : 1 280 pixels
  131. Height                                   : 720 pixels
  132. Display aspect ratio                     : 2.40:1
  133. Frame rate mode                          : Constant
  134. Frame rate                               : 23.976 (24000/1001) FPS
  135. Color space                              : YUV
  136. Chroma subsampling                       : 4:2:0
  137. Bit depth                                : 8 bits
  138. Scan type                                : Progressive
  139. Bits/(Pixel*Frame)                       : 0.043
  140. Stream size                              : 642 MiB (67%)
  141. Title                                    : LustMovies.pro
  142. Writing library                          : x264 core 152 r2854 e9a5903
  143. Encoding settings                        : cabac=1 / ref=1 / deblock=1:-1:-1 / analyse=0x3:0x113 / me=hex / subme=2 / psy=1 / psy_rd=1.00:0.15 / mixed_ref=0 / me_range=16 / chroma_me=1 / trellis=0 / 8x8dct=1 / cqm=0 / deadzone=21,11 / fast_pskip=1 / chroma_qp_offset=0 / threads=22 / lookahead_threads=5 / sliced_threads=0 / nr=0 / decimate=1 / interlaced=0 / bluray_compat=0 / constrained_intra=0 / bframes=3 / b_pyramid=2 / b_adapt=1 / b_bias=0 / direct=1 / weightb=1 / open_gop=0 / weightp=1 / keyint=240 / keyint_min=24 / scenecut=40 / intra_refresh=0 / rc_lookahead=10 / rc=abr / mbtree=1 / bitrate=950 / ratetol=1.0 / qcomp=0.60 / qpmin=0 / qpmax=69 / qpstep=4 / vbv_maxrate=17500 / vbv_bufsize=17500 / nal_hrd=none / filler=0 / ip_ratio=1.40 / aq=1:1.00
  144. Default                                  : Yes
  145. Forced                                   : No
  146. Color range                              : Limited
  147. Color primaries                          : BT.709
  148. Transfer characteristics                 : BT.709
  149. Matrix coefficients                      : BT.709
  150. Duration_Source                          : General_Duration
  151.  
  152. Audio #1
  153. ID                                       : 2
  154. Format                                   : AC-3
  155. Format/Info                              : Audio Coding 3
  156. Commercial name                          : Dolby Digital
  157. Codec ID                                 : A_AC3
  158. Duration                                 : 1 h 38 min
  159. Bit rate mode                            : Constant
  160. Bit rate                                 : 192 kb/s
  161. Channel(s)                               : 2 channels
  162. Channel layout                           : L R
  163. Sampling rate                            : 48.0 kHz
  164. Frame rate                               : 31.250 FPS (1536 SPF)
  165. Compression mode                         : Lossy
  166. Delay relative to video                  : 16 ms
  167. Stream size                              : 136 MiB (14%)
  168. Title                                    : LustMovies.pro
  169. Language                                 : Hindi
  170. Service kind                             : Complete Main
  171. Default                                  : Yes
  172. Forced                                   : No
  173. Duration_Source                          : General_Duration
  174.  
  175. Audio #2
  176. ID                                       : 3
  177. Format                                   : AC-3
  178. Format/Info                              : Audio Coding 3
  179. Commercial name                          : Dolby Digital
  180. Codec ID                                 : A_AC3
  181. Duration                                 : 1 h 38 min
  182. Bit rate mode                            : Constant
  183. Bit rate                                 : 224 kb/s
  184. Channel(s)                               : 6 channels
  185. Channel layout                           : L R C LFE Ls Rs
  186. Sampling rate                            : 48.0 kHz
  187. Frame rate                               : 31.250 FPS (1536 SPF)
  188. Compression mode                         : Lossy
  189. Delay relative to video                  : -5 ms
  190. Stream size                              : 158 MiB (17%)
  191. Title                                    : LustMovies.pro
  192. Language                                 : English
  193. Service kind                             : Complete Main
  194. Default                                  : No
  195. Forced                                   : No
  196. Duration_Source                          : General_Duration
  197.  
  198. Text
  199. ID                                       : 4
  200. Format                                   : PGS
  201. Codec ID                                 : S_HDMV/PGS
  202. Codec ID/Info                            : Picture based subtitle format used on BDs/HD-DVDs
  203. Title                                    : LustMovies.pro
  204. Language                                 : English
  205. Default                                  : Yes
  206. Forced                                   : Yes
  207.  
  208. General
  209. Unique ID                                : 189190985846829331672660973813020985909 (0x8E54DBC5AD3379D0C8C257F1DF538A35)
  210. Complete name                            :  The Wretched 2019 480p BluRay x264 (Hindi DD 2.0 + English DD 2.0) ~LustMovies.pro~ (461.0 M).mkv
  211. Format                                   : Matroska
  212. Format version                           : Version 4
  213. File size                                : 461 MiB
  214. Duration                                 : 1 h 38 min
  215. Overall bit rate                         : 652 kb/s
  216. Movie name                               : LustMovies.pro | The Wretched 2019
  217. Encoded date                             : UTC 2020-09-17 18:11:31
  218. Writing application                      : HandBrake 1.1.0 2018042400
  219. Writing library                          : Lavf57.83.100
  220. ErrorDetectionType                       : Per level 1
  221.  
  222. Video
  223. ID                                       : 1
  224. Format                                   : AVC
  225. Format/Info                              : Advanced Video Codec
  226. Format profile                           : [email protected]
  227. Format settings                          : CABAC / 4 Ref Frames
  228. Format settings, CABAC                   : Yes
  229. Format settings, Reference frames        : 4 frames
  230. Codec ID                                 : V_MPEG4/ISO/AVC
  231. Duration                                 : 1 h 38 min
  232. Bit rate                                 : 450 kb/s
  233. Width                                    : 720 pixels
  234. Height                                   : 480 pixels
  235. Display aspect ratio                     : 2.40:1
  236. Frame rate mode                          : Constant
  237. Frame rate                               : 23.976 (24000/1001) FPS
  238. Color space                              : YUV
  239. Chroma subsampling                       : 4:2:0
  240. Bit depth                                : 8 bits
  241. Scan type                                : Progressive
  242. Bits/(Pixel*Frame)                       : 0.054
  243. Stream size                              : 316 MiB (69%)
  244. Title                                    : LustMovies.pro
  245. Writing library                          : x264 core 152 r2854 e9a5903
  246. Encoding settings                        : cabac=1 / ref=1 / deblock=1:-1:-1 / analyse=0x1:0x111 / me=hex / subme=2 / psy=1 / psy_rd=1.00:0.15 / mixed_ref=0 / me_range=16 / chroma_me=1 / trellis=0 / 8x8dct=0 / cqm=0 / deadzone=21,11 / fast_pskip=1 / chroma_qp_offset=0 / threads=15 / lookahead_threads=3 / sliced_threads=0 / nr=0 / decimate=1 / interlaced=0 / bluray_compat=0 / constrained_intra=0 / bframes=3 / b_pyramid=2 / b_adapt=1 / b_bias=0 / direct=1 / weightb=1 / open_gop=0 / weightp=1 / keyint=240 / keyint_min=24 / scenecut=40 / intra_refresh=0 / rc_lookahead=10 / rc=abr / mbtree=1 / bitrate=450 / ratetol=1.0 / qcomp=0.60 / qpmin=0 / qpmax=69 / qpstep=4 / vbv_maxrate=14000 / vbv_bufsize=14000 / nal_hrd=none / filler=0 / ip_ratio=1.40 / aq=1:1.00
  247. Default                                  : Yes
  248. Forced                                   : No
  249. Color range                              : Limited
  250. Color primaries                          : BT.709
  251. Transfer characteristics                 : BT.709
  252. Matrix coefficients                      : BT.709
  253. Duration_Source                          : General_Duration
  254.  
  255. Audio #1
  256. ID                                       : 2
  257. Format                                   : AC-3
  258. Format/Info                              : Audio Coding 3
  259. Commercial name                          : Dolby Digital
  260. Codec ID                                 : A_AC3
  261. Duration                                 : 1 h 38 min
  262. Bit rate mode                            : Constant
  263. Bit rate                                 : 96.0 kb/s
  264. Channel(s)                               : 2 channels
  265. Channel layout                           : L R
  266. Sampling rate                            : 48.0 kHz
  267. Frame rate                               : 31.250 FPS (1536 SPF)
  268. Compression mode                         : Lossy
  269. Delay relative to video                  : 16 ms
  270. Stream size                              : 67.9 MiB (15%)
  271. Title                                    : LustMovies.pro
  272. Language                                 : Hindi
  273. Service kind                             : Complete Main
  274. Default                                  : Yes
  275. Forced                                   : No
  276. Duration_Source                          : General_Duration
  277.  
  278. Audio #2
  279. ID                                       : 3
  280. Format                                   : AC-3
  281. Format/Info                              : Audio Coding 3
  282. Commercial name                          : Dolby Digital
  283. Codec ID                                 : A_AC3
  284. Duration                                 : 1 h 38 min
  285. Bit rate mode                            : Constant
  286. Bit rate                                 : 96.0 kb/s
  287. Channel(s)                               : 2 channels
  288. Channel layout                           : L R
  289. Sampling rate                            : 48.0 kHz
  290. Frame rate                               : 31.250 FPS (1536 SPF)
  291. Compression mode                         : Lossy
  292. Delay relative to video                  : -5 ms
  293. Stream size                              : 67.9 MiB (15%)
  294. Title                                    : LustMovies.pro
  295. Language                                 : English
  296. Service kind                             : Complete Main
  297. Default                                  : No
  298. Forced                                   : No
  299. Duration_Source                          : General_Duration
  300.  
  301. Text
  302. ID                                       : 4
  303. Format                                   : PGS
  304. Codec ID                                 : S_HDMV/PGS
  305. Codec ID/Info                            : Picture based subtitle format used on BDs/HD-DVDs
  306. Title                                    : LustMovies.pro
  307. Language                                 : English
  308. Default                                  : Yes
  309. Forced                                   : Yes