The text below is selected, press Ctrl+C to copy to your clipboard. (⌘+C on Mac) No line numbers will be copied.
The Babysitter Killer Queen (2020)...

11th September 2020 05:42:19 AM | Views: 33
  1. Format                                   : Matroska
  2. Format version                           : Version 4
  3. File size                                : 915 MiB
  4. Duration                                 : 1 h 42 min
  5. Overall bit rate                         : 1 249 kb/s
  6. Movie name                               : The Babysitter Killer Queen (2020) 720p WEB-DL x265 10bit HEVC Dual Audio [Hindi DD5.1 + English DD5.1] ESub 915MB [www.MoviezAddiction.space]
  7. Encoded date                             : UTC 2020-09-11 03:04:34
  8. Writing application                      : mkvmerge v48.0.0 ('Fortress Around Your Heart') 64-bit
  9. Writing library                          : libebml v1.4.0 + libmatroska v1.6.0
  10.  
  11. Video
  12. ID                                       : 1
  13. Format                                   : HEVC
  14. Format/Info                              : High Efficiency Video Coding
  15. Format profile                           : Main [email protected]@Main
  16. Codec ID                                 : V_MPEGH/ISO/HEVC
  17. Duration                                 : 1 h 42 min
  18. Bit rate                                 : 866 kb/s
  19. Width                                    : 1 280 pixels
  20. Height                                   : 536 pixels
  21. Display aspect ratio                     : 2.40:1
  22. Frame rate mode                          : Constant
  23. Frame rate                               : 24.000 FPS
  24. Color space                              : YUV
  25. Chroma subsampling                       : 4:2:0
  26. Bit depth                                : 10 bits
  27. Bits/(Pixel*Frame)                       : 0.053
  28. Stream size                              : 634 MiB (69%)
  29. Title                                    : [www.MoviezAddiction.space]
  30. Default                                  : Yes
  31. Forced                                   : No
  32.  
  33. Audio #1
  34. ID                                       : 2
  35. Format                                   : AAC LC SBR
  36. Format/Info                              : Advanced Audio Codec Low Complexity with Spectral Band Replication
  37. Commercial name                          : HE-AAC
  38. Format settings                          : Explicit
  39. Codec ID                                 : A_AAC-2
  40. Duration                                 : 1 h 42 min
  41. Bit rate                                 : 192 kb/s
  42. Channel(s)                               : 6 channels
  43. Channel layout                           : C L R Ls Rs LFE
  44. Sampling rate                            : 48.0 kHz
  45. Frame rate                               : 23.438 FPS (2048 SPF)
  46. Compression mode                         : Lossy
  47. Stream size                              : 140 MiB (15%)
  48. Title                                    : [www.MoviezAddiction.space] - English
  49. Language                                 : English
  50. Default                                  : No
  51. Forced                                   : No
  52.  
  53. Audio #2
  54. ID                                       : 3
  55. Format                                   : AAC LC SBR
  56. Format/Info                              : Advanced Audio Codec Low Complexity with Spectral Band Replication
  57. Commercial name                          : HE-AAC
  58. Format settings                          : Explicit
  59. Codec ID                                 : A_AAC-2
  60. Duration                                 : 1 h 42 min
  61. Bit rate                                 : 192 kb/s
  62. Channel(s)                               : 6 channels
  63. Channel layout                           : C L R Ls Rs LFE
  64. Sampling rate                            : 48.0 kHz
  65. Frame rate                               : 23.438 FPS (2048 SPF)
  66. Compression mode                         : Lossy
  67. Stream size                              : 140 MiB (15%)
  68. Title                                    : [www.MoviezAddiction.space] - Hindi
  69. Language                                 : Hindi
  70. Default                                  : Yes
  71. Forced                                   : Yes
  72.  
  73. Text
  74. ID                                       : 4
  75. Format                                   : UTF-8
  76. Codec ID                                 : S_TEXT/UTF8
  77. Codec ID/Info                            : UTF-8 Plain Text
  78. Duration                                 : 1 h 40 min
  79. Bit rate                                 : 83 b/s
  80. Count of elements                        : 1839
  81. Stream size                              : 60.9 KiB (0%)
  82. Title                                    : [www.MoviezAddiction.space] - English [SRT]
  83. Language                                 : English
  84. Default                                  : Yes
  85. Forced                                   : Yes