The text below is selected, press Ctrl+C to copy to your clipboard. (⌘+C on Mac) No line numbers will be copied.
Overdose (2022) 1080p AMZN WEB-DL...

4th November 2022 03:11:30 PM | Views: 23
  1. Format                                   : Matroska
  2. Format version                           : Version 4
  3. File size                                : 7.00 GiB
  4. Duration                                 : 1 h 59 min
  5. Overall bit rate                         : 8 369 kb/s
  6. Movie name                               : Overdose (2022) 1080p AMZN WEB-DL x264 Dual Audio [Hindi DDP5.1 + English DDP5.1] ESub 6.99GB [MoviezAddiction.life]
  7. Encoded date                             : UTC 2022-11-04 05:37:41
  8. Writing application                      : mkvmerge v71.1.0 ('Fortitude') 64-bit
  9. Writing library                          : libebml v1.4.4 + libmatroska v1.7.1
  10.  
  11. Video
  12. ID                                       : 1
  13. Format                                   : AVC
  14. Format/Info                              : Advanced Video Codec
  15. Format profile                           : [email protected]
  16. Format settings                          : CABAC / 4 Ref Frames
  17. Format settings, CABAC                   : Yes
  18. Format settings, Reference frames        : 4 frames
  19. Codec ID                                 : V_MPEG4/ISO/AVC
  20. Duration                                 : 1 h 59 min
  21. Bit rate mode                            : Constant
  22. Bit rate                                 : 7 086 kb/s
  23. Nominal bit rate                         : 10 000 kb/s
  24. Width                                    : 1 920 pixels
  25. Height                                   : 800 pixels
  26. Display aspect ratio                     : 2.40:1
  27. Frame rate mode                          : Constant
  28. Frame rate                               : 24.000 FPS
  29. Color space                              : YUV
  30. Chroma subsampling                       : 4:2:0
  31. Bit depth                                : 8 bits
  32. Scan type                                : Progressive
  33. Bits/(Pixel*Frame)                       : 0.192
  34. Stream size                              : 5.93 GiB (85%)
  35. Default                                  : Yes
  36. Forced                                   : No
  37. Color range                              : Limited
  38. Color primaries                          : BT.709
  39. Transfer characteristics                 : BT.709
  40. Matrix coefficients                      : BT.709
  41.  
  42. Audio #1
  43. ID                                       : 2
  44. Format                                   : E-AC-3
  45. Format/Info                              : Enhanced AC-3
  46. Commercial name                          : Dolby Digital Plus
  47. Codec ID                                 : A_EAC3
  48. Duration                                 : 1 h 59 min
  49. Bit rate mode                            : Constant
  50. Bit rate                                 : 640 kb/s
  51. Channel(s)                               : 6 channels
  52. Channel layout                           : L R C LFE Ls Rs
  53. Sampling rate                            : 48.0 kHz
  54. Frame rate                               : 31.250 FPS (1536 SPF)
  55. Compression mode                         : Lossy
  56. Stream size                              : 548 MiB (8%)
  57. Title                                    : Hindi
  58. Language                                 : Hindi
  59. Service kind                             : Complete Main
  60. Default                                  : Yes
  61. Forced                                   : No
  62.  
  63. Audio #2
  64. ID                                       : 3
  65. Format                                   : E-AC-3
  66. Format/Info                              : Enhanced AC-3
  67. Commercial name                          : Dolby Digital Plus
  68. Codec ID                                 : A_EAC3
  69. Duration                                 : 1 h 59 min
  70. Bit rate mode                            : Constant
  71. Bit rate                                 : 640 kb/s
  72. Channel(s)                               : 6 channels
  73. Channel layout                           : L R C LFE Ls Rs
  74. Sampling rate                            : 48.0 kHz
  75. Frame rate                               : 31.250 FPS (1536 SPF)
  76. Compression mode                         : Lossy
  77. Stream size                              : 548 MiB (8%)
  78. Title                                    : English
  79. Language                                 : English
  80. Service kind                             : Complete Main
  81. Default                                  : No
  82. Forced                                   : No
  83.  
  84. Text
  85. ID                                       : 4
  86. Format                                   : UTF-8
  87. Codec ID                                 : S_TEXT/UTF8
  88. Codec ID/Info                            : UTF-8 Plain Text
  89. Duration                                 : 1 h 58 min
  90. Bit rate                                 : 44 b/s
  91. Frame rate                               : 0.186 FPS
  92. Count of elements                        : 1323
  93. Stream size                              : 38.3 KiB (0%)
  94. Title                                    : English [SRT]
  95. Language                                 : English
  96. Default                                  : Yes
  97. Forced                                   : No
  98.  
  99. Menu
  100. 00:00:00.000                             : en:Amazon Original
  101. 00:00:05.000                             : en:Studio Logo
  102. 00:00:30.000                             : en:Scene 3
  103. 00:00:43.000                             : en:Scene 4
  104. 00:01:39.000                             : en:Title Sequence
  105. 00:01:46.000                             : en:Scene 6
  106. 00:03:35.000                             : en:Scene 7
  107. 00:04:58.000                             : en:Scene 8
  108. 00:06:04.000                             : en:Scene 9
  109. 00:07:33.000                             : en:Scene 10
  110. 00:08:22.000                             : en:Scene 11
  111. 00:09:36.000                             : en:Scene 12
  112. 00:11:28.000                             : en:Scene 13
  113. 00:14:17.000                             : en:Scene 14
  114. 00:15:14.000                             : en:Scene 15
  115. 00:19:15.000                             : en:Scene 16
  116. 00:19:43.000                             : en:Scene 17
  117. 00:21:35.000                             : en:Scene 18
  118. 00:23:23.000                             : en:Scene 19
  119. 00:25:01.000                             : en:Scene 20
  120. 00:26:24.000                             : en:Scene 21
  121. 00:27:27.000                             : en:Scene 22
  122. 00:28:23.000                             : en:Scene 23
  123. 00:29:59.000                             : en:Scene 24
  124. 00:30:30.000                             : en:Scene 25
  125. 00:33:27.000                             : en:Scene 26
  126. 00:37:51.000                             : en:Scene 27
  127. 00:40:50.000                             : en:Scene 28
  128. 00:42:57.000                             : en:Scene 29
  129. 00:44:28.000                             : en:Scene 30
  130. 00:45:20.000                             : en:Scene 31
  131. 00:48:52.000                             : en:Scene 32
  132. 00:50:43.000                             : en:Scene 33
  133. 00:53:34.000                             : en:Scene 34
  134. 00:56:15.000                             : en:Scene 35
  135. 00:57:33.000                             : en:Scene 36
  136. 00:58:36.000                             : en:Scene 37
  137. 00:59:36.000                             : en:Scene 38
  138. 01:00:24.000                             : en:Scene 39
  139. 01:05:43.000                             : en:Scene 40
  140. 01:06:43.000                             : en:Scene 41
  141. 01:09:22.000                             : en:Scene 42
  142. 01:10:49.000                             : en:Scene 43
  143. 01:11:57.000                             : en:Scene 44
  144. 01:13:52.000                             : en:Scene 45
  145. 01:15:40.000                             : en:Scene 46
  146. 01:18:31.000                             : en:Scene 47
  147. 01:20:31.000                             : en:Scene 48
  148. 01:20:52.000                             : en:Scene 49
  149. 01:24:31.000                             : en:Scene 50
  150. 01:26:47.000                             : en:Scene 51
  151. 01:28:09.000                             : en:Scene 52
  152. 01:28:23.000                             : en:Scene 53
  153. 01:28:37.000                             : en:Scene 54
  154. 01:30:20.000                             : en:Scene 55
  155. 01:30:59.000                             : en:Scene 56
  156. 01:34:55.000                             : en:Scene 57
  157. 01:36:06.000                             : en:Scene 58
  158. 01:38:47.000                             : en:Scene 59
  159. 01:39:51.000                             : en:Scene 60
  160. 01:40:35.000                             : en:Scene 61
  161. 01:41:20.000                             : en:Scene 62
  162. 01:43:04.000                             : en:Scene 63
  163. 01:47:40.000                             : en:Scene 64
  164. 01:51:40.000                             : en:Scene 65
  165. 01:53:23.000                             : en:End Credits