The text below is selected, press Ctrl+C to copy to your clipboard. (⌘+C on Mac) No line numbers will be copied.
The Lair (2022) 1080p AMZN...

19th November 2022 02:21:43 AM | Views: 21
  1. Format                                   : Matroska
  2. Format version                           : Version 4
  3. File size                                : 1.66 GiB
  4. Duration                                 : 1 h 32 min
  5. Overall bit rate                         : 2 566 kb/s
  6. Movie name                               : The Lair (2022) 1080p AMZN WEB-DL x265 10bit HEVC Dual Audio [Hindi DDP2.0 + English DDP5.1] ESub 1.66GB [MoviezAddiction.life]
  7. Encoded date                             : UTC 2022-11-19 01:04:04
  8. Writing application                      : mkvmerge v72.0.0 ('Minuano (Six-eight)') 64-bit
  9. Writing library                          : libebml v1.4.4 + libmatroska v1.7.1
  10.  
  11. Video
  12. ID                                       : 1
  13. Format                                   : HEVC
  14. Format/Info                              : High Efficiency Video Coding
  15. Format profile                           : Main [email protected]@Main
  16. Codec ID                                 : V_MPEGH/ISO/HEVC
  17. Duration                                 : 1 h 32 min
  18. Bit rate                                 : 1 700 kb/s
  19. Width                                    : 1 916 pixels
  20. Height                                   : 816 pixels
  21. Display aspect ratio                     : 2.35:1
  22. Frame rate mode                          : Constant
  23. Frame rate                               : 25.000 FPS
  24. Color space                              : YUV
  25. Chroma subsampling                       : 4:2:0
  26. Bit depth                                : 10 bits
  27. Bits/(Pixel*Frame)                       : 0.043
  28. Stream size                              : 1.10 GiB (66%)
  29. Default                                  : Yes
  30. Forced                                   : No
  31. Color range                              : Limited
  32. Color primaries                          : BT.709
  33. Transfer characteristics                 : BT.709
  34. Matrix coefficients                      : BT.709
  35.  
  36. Audio #1
  37. ID                                       : 2
  38. Format                                   : E-AC-3
  39. Format/Info                              : Enhanced AC-3
  40. Commercial name                          : Dolby Digital Plus
  41. Codec ID                                 : A_EAC3
  42. Duration                                 : 1 h 32 min
  43. Bit rate mode                            : Constant
  44. Bit rate                                 : 224 kb/s
  45. Channel(s)                               : 2 channels
  46. Channel layout                           : L R
  47. Sampling rate                            : 48.0 kHz
  48. Frame rate                               : 31.250 FPS (1536 SPF)
  49. Compression mode                         : Lossy
  50. Stream size                              : 149 MiB (9%)
  51. Title                                    : Hindi
  52. Language                                 : Hindi
  53. Service kind                             : Complete Main
  54. Default                                  : Yes
  55. Forced                                   : No
  56.  
  57. Audio #2
  58. ID                                       : 3
  59. Format                                   : E-AC-3
  60. Format/Info                              : Enhanced AC-3
  61. Commercial name                          : Dolby Digital Plus
  62. Codec ID                                 : A_EAC3
  63. Duration                                 : 1 h 32 min
  64. Bit rate mode                            : Constant
  65. Bit rate                                 : 640 kb/s
  66. Channel(s)                               : 6 channels
  67. Channel layout                           : L R C LFE Ls Rs
  68. Sampling rate                            : 48.0 kHz
  69. Frame rate                               : 31.250 FPS (1536 SPF)
  70. Compression mode                         : Lossy
  71. Stream size                              : 425 MiB (25%)
  72. Title                                    : English
  73. Language                                 : English
  74. Service kind                             : Complete Main
  75. Default                                  : No
  76. Forced                                   : No
  77.  
  78. Text
  79. ID                                       : 4
  80. Format                                   : UTF-8
  81. Codec ID                                 : S_TEXT/UTF8
  82. Codec ID/Info                            : UTF-8 Plain Text
  83. Duration                                 : 1 h 25 min
  84. Bit rate                                 : 45 b/s
  85. Frame rate                               : 0.200 FPS
  86. Count of elements                        : 1021
  87. Stream size                              : 28.4 KiB (0%)
  88. Title                                    : English [SRT]
  89. Language                                 : English
  90. Default                                  : Yes
  91. Forced                                   : No