The text below is selected, press Ctrl+C to copy to your clipboard. (⌘+C on Mac) No line numbers will be copied.
Vengeance (2022) 2160p MA UHD...

14th November 2022 06:58:46 AM | Views: 22
  1. Format                                   : Matroska
  2. Format version                           : Version 4
  3. File size                                : 21.4 GiB
  4. Duration                                 : 1 h 48 min
  5. Overall bit rate mode                    : Variable
  6. Overall bit rate                         : 28.4 Mb/s
  7. Movie name                               : Vengeance (2022) 2160p MA UHD WEB-DL x265 10bit HDR DV HEVC Dual Audio [Hindi DDP5.1 + English DTS-HD MA 5.1] ESub 21.4GB [MoviezAddiction.life]
  8. Encoded date                             : UTC 2022-11-14 02:18:50
  9. Writing application                      : mkvmerge v71.1.0 ('Fortitude') 64-bit
  10. Writing library                          : libebml v1.4.4 + libmatroska v1.7.1
  11.  
  12. Video
  13. ID                                       : 1
  14. Format                                   : HEVC
  15. Format/Info                              : High Efficiency Video Coding
  16. Format profile                           : Main [email protected]@High
  17. HDR format                               : Dolby Vision, Version 1.0, dvhe.08.06, BL+RPU, HDR10 compatible / SMPTE ST 2086, HDR10 compatible
  18. Codec ID                                 : V_MPEGH/ISO/HEVC
  19. Duration                                 : 1 h 47 min
  20. Bit rate                                 : 24.6 Mb/s
  21. Width                                    : 3 840 pixels
  22. Height                                   : 2 160 pixels
  23. Display aspect ratio                     : 16:9
  24. Frame rate mode                          : Constant
  25. Frame rate                               : 23.976 (24000/1001) FPS
  26. Color space                              : YUV
  27. Chroma subsampling                       : 4:2:0 (Type 2)
  28. Bit depth                                : 10 bits
  29. Bits/(Pixel*Frame)                       : 0.124
  30. Stream size                              : 18.5 GiB (86%)
  31. Default                                  : Yes
  32. Forced                                   : No
  33. Color range                              : Limited
  34. Color primaries                          : BT.2020
  35. Transfer characteristics                 : PQ
  36. Matrix coefficients                      : BT.2020 non-constant
  37. Mastering display color primaries        : BT.2020
  38. Mastering display luminance              : min: 0.0050 cd/m2, max: 1000 cd/m2
  39. Maximum Content Light Level              : 1000 cd/m2
  40. Maximum Frame-Average Light Level        : 169 cd/m2
  41.  
  42. Audio #1
  43. ID                                       : 2
  44. Format                                   : E-AC-3
  45. Format/Info                              : Enhanced AC-3
  46. Commercial name                          : Dolby Digital Plus
  47. Codec ID                                 : A_EAC3
  48. Duration                                 : 1 h 48 min
  49. Bit rate mode                            : Constant
  50. Bit rate                                 : 640 kb/s
  51. Channel(s)                               : 6 channels
  52. Channel layout                           : L R C LFE Ls Rs
  53. Sampling rate                            : 48.0 kHz
  54. Frame rate                               : 31.250 FPS (1536 SPF)
  55. Compression mode                         : Lossy
  56. Delay relative to video                  : -28 s 140 ms
  57. Stream size                              : 495 MiB (2%)
  58. Title                                    : Hindi
  59. Language                                 : Hindi
  60. Service kind                             : Complete Main
  61. Default                                  : Yes
  62. Forced                                   : No
  63.  
  64. Audio #2
  65. ID                                       : 3
  66. Format                                   : DTS XLL
  67. Format/Info                              : Digital Theater Systems
  68. Commercial name                          : DTS-HD Master Audio
  69. Codec ID                                 : A_DTS
  70. Duration                                 : 1 h 47 min
  71. Bit rate mode                            : Variable
  72. Bit rate                                 : 3 307 kb/s
  73. Channel(s)                               : 6 channels
  74. Channel layout                           : C L R Ls Rs LFE
  75. Sampling rate                            : 48.0 kHz
  76. Frame rate                               : 93.750 FPS (512 SPF)
  77. Bit depth                                : 24 bits
  78. Compression mode                         : Lossless
  79. Delay relative to video                  : -107 ms
  80. Stream size                              : 2.49 GiB (12%)
  81. Title                                    : English
  82. Language                                 : English
  83. Default                                  : No
  84. Forced                                   : No
  85.  
  86. Text
  87. ID                                       : 4
  88. Format                                   : UTF-8
  89. Codec ID                                 : S_TEXT/UTF8
  90. Codec ID/Info                            : UTF-8 Plain Text
  91. Duration                                 : 1 h 41 min
  92. Bit rate                                 : 82 b/s
  93. Frame rate                               : 0.324 FPS
  94. Count of elements                        : 1969
  95. Stream size                              : 61.6 KiB (0%)
  96. Title                                    : English [SRT]
  97. Language                                 : English
  98. Default                                  : No
  99. Forced                                   : No
  100.  
  101. Menu
  102. 00:00:28.256                             : en:Chapter 01
  103. 00:05:42.653                             : en:Chapter 02
  104. 00:11:48.185                             : en:Chapter 03
  105. 00:14:52.828                             : en:Chapter 04
  106. 00:22:42.422                             : en:Chapter 05
  107. 00:32:10.156                             : en:Chapter 06
  108. 00:37:12.416                             : en:Chapter 07
  109. 00:41:30.549                             : en:Chapter 08
  110. 00:48:18.457                             : en:Chapter 09
  111. 00:51:04.706                             : en:Chapter 10
  112. 00:55:38.313                             : en:Chapter 11
  113. 01:01:50.768                             : en:Chapter 12
  114. 01:03:43.714                             : en:Chapter 13
  115. 01:08:26.247                             : en:Chapter 14
  116. 01:12:07.885                             : en:Chapter 15
  117. 01:20:47.862                             : en:Chapter 16
  118. 01:26:57.982                             : en:Chapter 17
  119. 01:30:53.718                             : en:Chapter 18
  120. 01:40:26.957                             : en:Chapter 19
  121. 01:42:31.915                             : en:Chapter 20