The text below is selected, press Ctrl+C to copy to your clipboard. (⌘+C on Mac) No line numbers will be copied.
Vv

11th May 2019 03:04:36 PM | Views: 142
  1. Format                                   : Matroska
  2. Format version                           : Version 4
  3. File size                                : 1.10 GiB
  4. Duration                                 : 2 h 10 min
  5. Overall bit rate                         : 1 211 kb/s
  6. Movie name                               : [Desishare.org]
  7. Encoded date                             : UTC 2019-05-11 14:42:46
  8. Writing application                      : mkvmerge v32.0.0 ('Astral Progressions') 64-bit
  9. Writing library                          : libebml v1.3.7 + libmatroska v1.5.0
  10.  
  11. Video
  12. ID                                       : 1
  13. Format                                   : AVC
  14. Format/Info                              : Advanced Video Codec
  15. Format profile                           : [email protected]
  16. Format settings                          : CABAC / 5 Ref Frames
  17. Format settings, CABAC                   : Yes
  18. Format settings, RefFrames               : 5 frames
  19. Codec ID                                 : V_MPEG4/ISO/AVC
  20. Duration                                 : 2 h 10 min
  21. Bit rate                                 : 928 kb/s
  22. Width                                    : 1 280 pixels
  23. Height                                   : 544 pixels
  24. Display aspect ratio                     : 2.35:1
  25. Frame rate mode                          : Constant
  26. Frame rate                               : 30.000 FPS
  27. Color space                              : YUV
  28. Chroma subsampling                       : 4:2:0
  29. Bit depth                                : 8 bits
  30. Scan type                                : Progressive
  31. Bits/(Pixel*Frame)                       : 0.044
  32. Stream size                              : 859 MiB (76%)
  33. Title                                    : [Desishare.org]
  34. Writing library                          : x264 core 157 r2935 545de2f
  35. Encoding settings                        : cabac=1 / ref=5 / deblock=1:0:0 / analyse=0x3:0x113 / me=hex / subme=8 / psy=1 / psy_rd=1.00:0.00 / mixed_ref=1 / me_range=16 / chroma_me=1 / trellis=2 / 8x8dct=1 / cqm=0 / deadzone=21,11 / fast_pskip=1 / chroma_qp_offset=-2 / threads=12 / lookahead_threads=2 / sliced_threads=0 / nr=0 / decimate=1 / interlaced=0 / bluray_compat=0 / constrained_intra=0 / bframes=3 / b_pyramid=2 / b_adapt=1 / b_bias=0 / direct=3 / weightb=1 / open_gop=0 / weightp=2 / keyint=250 / keyint_min=25 / scenecut=40 / intra_refresh=0 / rc_lookahead=50 / rc=abr / mbtree=1 / bitrate=928 / ratetol=1.0 / qcomp=0.60 / qpmin=0 / qpmax=69 / qpstep=4 / ip_ratio=1.40 / aq=1:1.00
  36. Default                                  : Yes
  37. Forced                                   : No
  38. Color range                              : Limited
  39. Color primaries                          : BT.709
  40. Transfer characteristics                 : BT.709
  41. Matrix coefficients                      : BT.709
  42.  
  43. Audio #1
  44. ID                                       : 2
  45. Format                                   : MPEG Audio
  46. Format version                           : Version 2
  47. Format profile                           : Layer 3
  48. Format settings                          : Joint stereo / Intensity Stereo + MS Stereo
  49. Codec ID                                 : A_MPEG/L3
  50. Codec ID/Hint                            : MP3
  51. Duration                                 : 2 h 10 min
  52. Bit rate mode                            : Constant
  53. Bit rate                                 : 80.0 kb/s
  54. Channel(s)                               : 2 channels
  55. Sampling rate                            : 22.05 kHz
  56. Frame rate                               : 38.281 FPS (576 SPF)
  57. Compression mode                         : Lossy
  58. Delay relative to video                  : 7 ms
  59. Stream size                              : 74.6 MiB (7%)
  60. Title                                    : [Desishare.org]
  61. Language                                 : Tamil
  62. Default                                  : Yes
  63. Forced                                   : No
  64.  
  65. Audio #2
  66. ID                                       : 3
  67. Format                                   : MPEG Audio
  68. Format version                           : Version 2
  69. Format profile                           : Layer 3
  70. Format settings                          : Joint stereo / Intensity Stereo + MS Stereo
  71. Codec ID                                 : A_MPEG/L3
  72. Codec ID/Hint                            : MP3
  73. Duration                                 : 2 h 10 min
  74. Bit rate mode                            : Constant
  75. Bit rate                                 : 80.0 kb/s
  76. Channel(s)                               : 2 channels
  77. Sampling rate                            : 22.05 kHz
  78. Frame rate                               : 38.281 FPS (576 SPF)
  79. Compression mode                         : Lossy
  80. Stream size                              : 74.6 MiB (7%)
  81. Title                                    : [Desishare.org]
  82. Language                                 : Telugu
  83. Default                                  : No
  84. Forced                                   : No
  85.  
  86. Audio #3
  87. ID                                       : 4
  88. Format                                   : MPEG Audio
  89. Format version                           : Version 2
  90. Format profile                           : Layer 3
  91. Format settings                          : Joint stereo / Intensity Stereo + MS Stereo
  92. Codec ID                                 : A_MPEG/L3
  93. Codec ID/Hint                            : MP3
  94. Duration                                 : 2 h 10 min
  95. Bit rate mode                            : Constant
  96. Bit rate                                 : 64.0 kb/s
  97. Channel(s)                               : 2 channels
  98. Sampling rate                            : 22.05 kHz
  99. Frame rate                               : 38.281 FPS (576 SPF)
  100. Compression mode                         : Lossy
  101. Stream size                              : 59.5 MiB (5%)
  102. Title                                    : [Desishare.org]
  103. Language                                 : Hindi
  104. Default                                  : No
  105. Forced                                   : No
  106.  
  107. Audio #4
  108. ID                                       : 5
  109. Format                                   : AAC LC SBR
  110. Format/Info                              : Advanced Audio Codec Low Complexity with Spectral Band Replication
  111. Commercial name                          : HE-AAC
  112. Format settings                          : Explicit
  113. Codec ID                                 : A_AAC-2
  114. Duration                                 : 2 h 10 min
  115. Bit rate                                 : 64.0 kb/s
  116. Channel(s)                               : 2 channels
  117. Channel layout                           : L R
  118. Sampling rate                            : 48.0 kHz
  119. Frame rate                               : 23.438 FPS (2048 SPF)
  120. Compression mode                         : Lossy
  121. Delay relative to video                  : 42 ms
  122. Stream size                              : 59.6 MiB (5%)
  123. Title                                    : [Desishare.org]
  124. Language                                 : English
  125. Default                                  : No
  126. Forced                                   : No