The text below is selected, press Ctrl+C to copy to your clipboard. (⌘+C on Mac) No line numbers will be copied.
The Room (2019) 720p Bluray...

16th September 2020 06:47:49 AM | Views: 10
  1. Format                                   : Matroska
  2. Format version                           : Version 4
  3. File size                                : 856 MiB
  4. Duration                                 : 1 h 39 min
  5. Overall bit rate                         : 1 206 kb/s
  6. Movie name                               : The Room (2019) 720p Bluray x265 10bit HEVC Dual Audio [ Hindi DD5.1 + English DD5.1 ] ESub [www.MoviezAddiction.space]
  7. Encoded date                             : UTC 2020-09-16 04:42:17
  8. Writing application                      : mkvmerge v48.0.0 ('Fortress Around Your Heart') 64-bit
  9. Writing library                          : libebml v1.4.0 + libmatroska v1.6.0
  10.  
  11. Video
  12. ID                                       : 2
  13. Format                                   : HEVC
  14. Format/Info                              : High Efficiency Video Coding
  15. Format profile                           : Main [email protected]@Main
  16. Codec ID                                 : V_MPEGH/ISO/HEVC
  17. Duration                                 : 1 h 39 min
  18. Bit rate                                 : 808 kb/s
  19. Width                                    : 1 280 pixels
  20. Height                                   : 536 pixels
  21. Display aspect ratio                     : 2.40:1
  22. Frame rate mode                          : Constant
  23. Frame rate                               : 24.000 FPS
  24. Color space                              : YUV
  25. Chroma subsampling                       : 4:2:0
  26. Bit depth                                : 10 bits
  27. Bits/(Pixel*Frame)                       : 0.049
  28. Stream size                              : 573 MiB (67%)
  29. Title                                    : [www.MoviezAddiction.space]
  30. Default                                  : Yes
  31. Forced                                   : No
  32.  
  33. Audio #1
  34. ID                                       : 3
  35. Format                                   : AAC LC SBR
  36. Format/Info                              : Advanced Audio Codec Low Complexity with Spectral Band Replication
  37. Commercial name                          : HE-AAC
  38. Format settings                          : Explicit
  39. Codec ID                                 : A_AAC-2
  40. Duration                                 : 1 h 39 min
  41. Bit rate                                 : 206 kb/s
  42. Channel(s)                               : 6 channels
  43. Channel layout                           : C L R Ls Rs LFE
  44. Sampling rate                            : 48.0 kHz
  45. Frame rate                               : 23.438 FPS (2048 SPF)
  46. Compression mode                         : Lossy
  47. Delay relative to video                  : 23 ms
  48. Stream size                              : 146 MiB (17%)
  49. Title                                    : [www.MoviezAddiction.space]
  50. Language                                 : English
  51. Default                                  : No
  52. Forced                                   : No
  53.  
  54. Audio #2
  55. ID                                       : 5
  56. Format                                   : AAC LC
  57. Format/Info                              : Advanced Audio Codec Low Complexity
  58. Codec ID                                 : A_AAC-2
  59. Duration                                 : 1 h 39 min
  60. Bit rate                                 : 192 kb/s
  61. Channel(s)                               : 6 channels
  62. Channel layout                           : C L R Ls Rs LFE
  63. Sampling rate                            : 48.0 kHz
  64. Frame rate                               : 46.875 FPS (1024 SPF)
  65. Compression mode                         : Lossy
  66. Delay relative to video                  : 11 ms
  67. Stream size                              : 134 MiB (16%)
  68. Title                                    : [www.MoviezAddiction.space]
  69. Language                                 : Hindi
  70. Default                                  : Yes
  71. Forced                                   : Yes
  72.  
  73. Text #1
  74. ID                                       : 1
  75. Format                                   : UTF-8
  76. Codec ID                                 : S_TEXT/UTF8
  77. Codec ID/Info                            : UTF-8 Plain Text
  78. Duration                                 : 1 h 38 min
  79. Bit rate                                 : 29 b/s
  80. Count of elements                        : 1219
  81. Stream size                              : 21.3 KiB (0%)
  82. Title                                    : [www.MoviezAddiction.space]
  83. Language                                 : English
  84. Default                                  : Yes
  85. Forced                                   : Yes
  86.  
  87. Text #2
  88. ID                                       : 4
  89. Format                                   : UTF-8
  90. Codec ID                                 : S_TEXT/UTF8
  91. Codec ID/Info                            : UTF-8 Plain Text
  92. Duration                                 : 1 h 38 min
  93. Bit rate                                 : 29 b/s
  94. Count of elements                        : 1219
  95. Stream size                              : 21.3 KiB (0%)
  96. Title                                    : [www.MoviezAddiction.space]
  97. Language                                 : English
  98. Default                                  : No
  99. Forced                                   : No
  100.  
  101. Menu
  102. 00:00:00.000                             : :Chapter 1
  103. 00:08:41.800                             : :Chapter 2
  104. 00:19:31.800                             : :Chapter 3
  105. 00:29:18.800                             : :Chapter 4
  106. 00:38:25.800                             : :Chapter 5
  107. 00:49:13.400                             : :Chapter 6
  108. 01:01:41.400                             : :Chapter 7
  109. 01:10:17.800                             : :Chapter 8
  110. 01:19:53.800                             : :Chapter 9
  111. 01:30:37.800                             : :Chapter 10