The text below is selected, press Ctrl+C to copy to your clipboard. (⌘+C on Mac) No line numbers will be copied.
Adrift (2018) 1080p REMUX

15th January 2022 02:49:59 PM | Views: 56
  1. Format                                   : Matroska
  2. Format version                           : Version 4
  3. File size                                : 26.4 GiB
  4. Duration                                 : 1 h 36 min
  5. Overall bit rate mode                    : Variable
  6. Overall bit rate                         : 39.1 Mb/s
  7. Movie name                               : Adrift (2018) 1080p BluRay REMUX x264 Dual Audio [Hindi DD2.0 + English DTS-HD MA 7.1] ESub 26.4GB [www.MoviezAddiction.art]
  8. Encoded date                             : UTC 2022-01-15 13:24:12
  9. Writing application                      : mkvmerge v47.0.0 ('Black Flag') 64-bit
  10. Writing library                          : libebml v1.3.10 + libmatroska v1.5.2
  11.  
  12. Video
  13. ID                                       : 1
  14. Format                                   : AVC
  15. Format/Info                              : Advanced Video Codec
  16. Format profile                           : [email protected]
  17. Format settings                          : CABAC / 4 Ref Frames
  18. Format settings, CABAC                   : Yes
  19. Format settings, Reference frames        : 4 frames
  20. Format settings, GOP                     : M=3, N=12
  21. Codec ID                                 : V_MPEG4/ISO/AVC
  22. Duration                                 : 1 h 36 min
  23. Bit rate mode                            : Variable
  24. Bit rate                                 : 34.3 Mb/s
  25. Maximum bit rate                         : 38.3 Mb/s
  26. Width                                    : 1 920 pixels
  27. Height                                   : 1 080 pixels
  28. Display aspect ratio                     : 16:9
  29. Frame rate mode                          : Constant
  30. Frame rate                               : 23.976 (24000/1001) FPS
  31. Color space                              : YUV
  32. Chroma subsampling                       : 4:2:0
  33. Bit depth                                : 8 bits
  34. Scan type                                : Progressive
  35. Bits/(Pixel*Frame)                       : 0.690
  36. Stream size                              : 23.2 GiB (88%)
  37. Title                                    : [www.MoviezAddiction.art]
  38. Default                                  : Yes
  39. Forced                                   : No
  40.  
  41. Audio #1
  42. ID                                       : 2
  43. Format                                   : AC-3
  44. Format/Info                              : Audio Coding 3
  45. Commercial name                          : Dolby Digital
  46. Codec ID                                 : A_AC3
  47. Duration                                 : 1 h 36 min
  48. Bit rate mode                            : Constant
  49. Bit rate                                 : 224 kb/s
  50. Channel(s)                               : 2 channels
  51. Channel layout                           : L R
  52. Sampling rate                            : 48.0 kHz
  53. Frame rate                               : 31.250 FPS (1536 SPF)
  54. Compression mode                         : Lossy
  55. Stream size                              : 155 MiB (1%)
  56. Title                                    : [www.MoviezAddiction.art] - Hindi
  57. Language                                 : Hindi
  58. Service kind                             : Complete Main
  59. Default                                  : Yes
  60. Forced                                   : No
  61.  
  62. Audio #2
  63. ID                                       : 3
  64. Format                                   : DTS XLL
  65. Format/Info                              : Digital Theater Systems
  66. Commercial name                          : DTS-HD Master Audio
  67. Codec ID                                 : A_DTS
  68. Duration                                 : 1 h 36 min
  69. Bit rate mode                            : Variable
  70. Bit rate                                 : 4 565 kb/s
  71. Channel(s)                               : 8 channels
  72. Channel layout                           : C L R LFE Lb Rb Lss Rss
  73. Sampling rate                            : 48.0 kHz
  74. Frame rate                               : 93.750 FPS (512 SPF)
  75. Bit depth                                : 24 bits
  76. Compression mode                         : Lossless
  77. Stream size                              : 3.09 GiB (12%)
  78. Title                                    : [www.MoviezAddiction.art] - English
  79. Language                                 : English
  80. Default                                  : No
  81. Forced                                   : No
  82.  
  83. Text
  84. ID                                       : 4
  85. Format                                   : PGS
  86. Codec ID                                 : S_HDMV/PGS
  87. Codec ID/Info                            : Picture based subtitle format used on BDs/HD-DVDs
  88. Duration                                 : 1 h 28 min
  89. Bit rate                                 : 31.1 kb/s
  90. Count of elements                        : 1990
  91. Stream size                              : 19.6 MiB (0%)
  92. Title                                    : [www.MoviezAddiction.art] - English [SDH] [PGS]
  93. Language                                 : English
  94. Default                                  : Yes
  95. Forced                                   : No
  96.  
  97. Menu
  98. 00:00:00.000                             : en:Chapter 1
  99. 00:05:18.944                             : en:Chapter 2
  100. 00:08:04.401                             : en:Chapter 3
  101. 00:14:01.257                             : en:Chapter 4
  102. 00:19:38.010                             : en:Chapter 5
  103. 00:24:46.568                             : en:Chapter 6
  104. 00:29:42.572                             : en:Chapter 7
  105. 00:34:45.709                             : en:Chapter 8
  106. 00:37:20.947                             : en:Chapter 9
  107. 00:43:30.024                             : en:Chapter 10
  108. 00:49:43.564                             : en:Chapter 11
  109. 00:52:40.532                             : en:Chapter 12
  110. 00:58:12.447                             : en:Chapter 13
  111. 01:06:31.029                             : en:Chapter 14
  112. 01:11:19.650                             : en:Chapter 15
  113. 01:14:07.151                             : en:Chapter 16
  114. 01:18:06.974                             : en:Chapter 17
  115. 01:24:15.550                             : en:Chapter 18
  116. 01:27:22.446                             : en:Chapter 19
  117. 01:31:34.489                             : en:Chapter 20