The text below is selected, press Ctrl+C to copy to your clipboard. (⌘+C on Mac) No line numbers will be copied.
MediaInfo

12th April 2019 10:56:35 AM | Views: 444
  1. Format                      : Matroska
  2. Format version              : Version 4 / Version 2
  3. File size                   : 1.65 GiB
  4. Duration                    : 1 h 30 min
  5. Overall bit rate            : 2 609 kb/s
  6. Encoded date                : UTC 2019-04-12 10:53:03
  7. Writing application         : mkvmerge v30.0.0 ('Interstellar') 64-bit
  8. Writing library             : libebml v1.3.6 + libmatroska v1.4.9
  9.  
  10. Video
  11. ID                          : 1
  12. Format                      : AVC
  13. Format/Info                 : Advanced Video Codec
  14. Format profile              : [email protected]
  15. Format settings             : CABAC / 5 Ref Frames
  16. Format settings, CABAC      : Yes
  17. Format settings, ReFrames   : 5 frames
  18. Codec ID                    : V_MPEG4/ISO/AVC
  19. Duration                    : 1 h 30 min
  20. Bit rate                    : 2 347 kb/s
  21. Width                       : 1 920 pixels
  22. Height                      : 804 pixels
  23. Display aspect ratio        : 2.40:1
  24. Frame rate mode             : Constant
  25. Frame rate                  : 23.976 (24000/1001) FPS
  26. Color space                 : YUV
  27. Chroma subsampling          : 4:2:0
  28. Bit depth                   : 8 bits
  29. Scan type                   : Progressive
  30. Bits/(Pixel*Frame)          : 0.063
  31. Stream size                 : 1.49 GiB (90%)
  32. Writing library             : x264 core 157 r2935 545de2f
  33. Encoding settings           : cabac=1 / ref=5 / deblock=1:-1:-1 / analyse=0x3:0x133 / me=umh / subme=9 / psy=1 / psy_rd=1.00:0.10 / mixed_ref=1 / me_range=24 / chroma_me=1 / trellis=2 / 8x8dct=1 / cqm=0 / deadzone=21,11 / fast_pskip=1 / chroma_qp_offset=-3 / threads=25 / lookahead_threads=2 / sliced_threads=0 / nr=0 / decimate=1 / interlaced=0 / bluray_compat=0 / constrained_intra=0 / bframes=3 / b_pyramid=2 / b_adapt=2 / b_bias=0 / direct=3 / weightb=1 / open_gop=0 / weightp=2 / keyint=250 / keyint_min=23 / scenecut=40 / intra_refresh=0 / rc_lookahead=60 / rc=2pass / mbtree=1 / bitrate=2347 / ratetol=1.0 / qcomp=0.60 / qpmin=0 / qpmax=69 / qpstep=4 / cplxblur=20.0 / qblur=0.5 / ip_ratio=1.40 / aq=1:1.00
  34. Default                     : Yes
  35. Forced                      : No
  36.  
  37. Audio
  38. ID                          : 2
  39. Format                      : AAC
  40. Format/Info                 : Advanced Audio Codec
  41. Format profile              : HE-AAC / LC
  42. Format settings             : NBC
  43. Codec ID                    : A_AAC-2
  44. Duration                    : 1 h 30 min
  45. Bit rate                    : 256 kb/s
  46. Channel(s)                  : 6 channels
  47. Channel(s)_Original         : 18 channels
  48. Channel positions           : Front: 14, Side: C, Back: C, LFE= 2
  49. Sampling rate               : 48.0 kHz / 24.0 kHz
  50. Frame rate                  : 23.438 FPS (1024 SPF)
  51. Compression mode            : Lossy
  52. Delay relative to video     : 43 ms
  53. Stream size                 : 166 MiB (10%)
  54. Title                       : English
  55. Language                    : English
  56. Default                     : Yes
  57. Forced                      : No
  58.  
  59. Text #1
  60. ID                          : 3
  61. Format                      : UTF-8
  62. Codec ID                    : S_TEXT/UTF8
  63. Codec ID/Info               : UTF-8 Plain Text
  64. Duration                    : 1 h 29 min
  65. Bit rate                    : 90 b/s
  66. Count of elements           : 1569
  67. Stream size                 : 59.2 KiB (0%)
  68. Language                    : English
  69. Default                     : Yes
  70. Forced                      : No
  71.  
  72. Text #2
  73. ID                          : 4
  74. Format                      : UTF-8
  75. Codec ID                    : S_TEXT/UTF8
  76. Codec ID/Info               : UTF-8 Plain Text
  77. Duration                    : 1 h 29 min
  78. Bit rate                    : 93 b/s
  79. Count of elements           : 1663
  80. Stream size                 : 61.3 KiB (0%)
  81. Title                       : SDH
  82. Language                    : English
  83. Default                     : No
  84. Forced                      : No
  85.  
  86. Text #3
  87. ID                          : 5
  88. Format                      : UTF-8
  89. Codec ID                    : S_TEXT/UTF8
  90. Codec ID/Info               : UTF-8 Plain Text
  91. Duration                    : 1 h 24 min
  92. Bit rate                    : 163 b/s
  93. Count of elements           : 1490
  94. Stream size                 : 101 KiB (0%)
  95. Language                    : Arabic
  96. Default                     : No
  97. Forced                      : No
  98.  
  99. Text #4
  100. ID                          : 6
  101. Format                      : UTF-8
  102. Codec ID                    : S_TEXT/UTF8
  103. Codec ID/Info               : UTF-8 Plain Text
  104. Duration                    : 1 h 24 min
  105. Bit rate                    : 73 b/s
  106. Count of elements           : 1258
  107. Stream size                 : 45.6 KiB (0%)
  108. Language                    : Czech
  109. Default                     : No
  110. Forced                      : No
  111.  
  112. Text #5
  113. ID                          : 7
  114. Format                      : UTF-8
  115. Codec ID                    : S_TEXT/UTF8
  116. Codec ID/Info               : UTF-8 Plain Text
  117. Duration                    : 1 h 24 min
  118. Bit rate                    : 80 b/s
  119. Count of elements           : 1445
  120. Stream size                 : 49.8 KiB (0%)
  121. Language                    : Danish
  122. Default                     : No
  123. Forced                      : No
  124.  
  125. Text #6
  126. ID                          : 8
  127. Format                      : UTF-8
  128. Codec ID                    : S_TEXT/UTF8
  129. Codec ID/Info               : UTF-8 Plain Text
  130. Duration                    : 1 h 24 min
  131. Bit rate                    : 82 b/s
  132. Count of elements           : 1491
  133. Stream size                 : 50.6 KiB (0%)
  134. Language                    : German
  135. Default                     : No
  136. Forced                      : No
  137.  
  138. Text #7
  139. ID                          : 9
  140. Format                      : UTF-8
  141. Codec ID                    : S_TEXT/UTF8
  142. Codec ID/Info               : UTF-8 Plain Text
  143. Duration                    : 1 h 24 min
  144. Bit rate                    : 132 b/s
  145. Count of elements           : 1453
  146. Stream size                 : 81.6 KiB (0%)
  147. Language                    : Greek
  148. Default                     : No
  149. Forced                      : No
  150.  
  151. Text #8
  152. ID                          : 10
  153. Format                      : UTF-8
  154. Codec ID                    : S_TEXT/UTF8
  155. Codec ID/Info               : UTF-8 Plain Text
  156. Duration                    : 1 h 24 min
  157. Bit rate                    : 84 b/s
  158. Count of elements           : 1455
  159. Stream size                 : 52.2 KiB (0%)
  160. Language                    : Spanish
  161. Default                     : No
  162. Forced                      : No
  163.  
  164. Text #9
  165. ID                          : 11
  166. Format                      : UTF-8
  167. Codec ID                    : S_TEXT/UTF8
  168. Codec ID/Info               : UTF-8 Plain Text
  169. Duration                    : 1 h 24 min
  170. Bit rate                    : 74 b/s
  171. Count of elements           : 1491
  172. Stream size                 : 45.7 KiB (0%)
  173. Title                       : European
  174. Language                    : Spanish
  175. Default                     : No
  176. Forced                      : No
  177.  
  178. Text #10
  179. ID                          : 12
  180. Format                      : UTF-8
  181. Codec ID                    : S_TEXT/UTF8
  182. Codec ID/Info               : UTF-8 Plain Text
  183. Duration                    : 1 h 24 min
  184. Bit rate                    : 82 b/s
  185. Count of elements           : 1439
  186. Stream size                 : 51.0 KiB (0%)
  187. Language                    : Finnish
  188. Default                     : No
  189. Forced                      : No
  190.  
  191. Text #11
  192. ID                          : 13
  193. Format                      : UTF-8
  194. Codec ID                    : S_TEXT/UTF8
  195. Codec ID/Info               : UTF-8 Plain Text
  196. Duration                    : 1 h 24 min
  197. Bit rate                    : 88 b/s
  198. Count of elements           : 1481
  199. Stream size                 : 54.3 KiB (0%)
  200. Language                    : French
  201. Default                     : No
  202. Forced                      : No
  203.  
  204. Text #12
  205. ID                          : 14
  206. Format                      : UTF-8
  207. Codec ID                    : S_TEXT/UTF8
  208. Codec ID/Info               : UTF-8 Plain Text
  209. Duration                    : 1 h 24 min
  210. Bit rate                    : 134 b/s
  211. Count of elements           : 1362
  212. Stream size                 : 82.9 KiB (0%)
  213. Language                    : Hebrew
  214. Default                     : No
  215. Forced                      : No
  216.  
  217. Text #13
  218. ID                          : 15
  219. Format                      : UTF-8
  220. Codec ID                    : S_TEXT/UTF8
  221. Codec ID/Info               : UTF-8 Plain Text
  222. Duration                    : 1 h 24 min
  223. Bit rate                    : 231 b/s
  224. Count of elements           : 1492
  225. Stream size                 : 143 KiB (0%)
  226. Language                    : Hindi
  227. Default                     : No
  228. Forced                      : No
  229.  
  230. Text #14
  231. ID                          : 16
  232. Format                      : UTF-8
  233. Codec ID                    : S_TEXT/UTF8
  234. Codec ID/Info               : UTF-8 Plain Text
  235. Duration                    : 1 h 24 min
  236. Bit rate                    : 80 b/s
  237. Count of elements           : 1489
  238. Stream size                 : 49.4 KiB (0%)
  239. Language                    : Hungarian
  240. Default                     : No
  241. Forced                      : No
  242.  
  243. Text #15
  244. ID                          : 17
  245. Format                      : UTF-8
  246. Codec ID                    : S_TEXT/UTF8
  247. Codec ID/Info               : UTF-8 Plain Text
  248. Duration                    : 1 h 24 min
  249. Bit rate                    : 88 b/s
  250. Count of elements           : 1495
  251. Stream size                 : 54.5 KiB (0%)
  252. Language                    : Indonesian
  253. Default                     : No
  254. Forced                      : No
  255.  
  256. Text #16
  257. ID                          : 18
  258. Format                      : UTF-8
  259. Codec ID                    : S_TEXT/UTF8
  260. Codec ID/Info               : UTF-8 Plain Text
  261. Duration                    : 1 h 24 min
  262. Bit rate                    : 88 b/s
  263. Count of elements           : 1482
  264. Stream size                 : 54.6 KiB (0%)
  265. Language                    : Italian
  266. Default                     : No
  267. Forced                      : No
  268.  
  269. Text #17
  270. ID                          : 19
  271. Format                      : UTF-8
  272. Codec ID                    : S_TEXT/UTF8
  273. Codec ID/Info               : UTF-8 Plain Text
  274. Duration                    : 1 h 24 min
  275. Bit rate                    : 89 b/s
  276. Count of elements           : 1517
  277. Stream size                 : 55.1 KiB (0%)
  278. Language                    : Japanese
  279. Default                     : No
  280. Forced                      : No
  281.  
  282. Text #18
  283. ID                          : 20
  284. Format                      : UTF-8
  285. Codec ID                    : S_TEXT/UTF8
  286. Codec ID/Info               : UTF-8 Plain Text
  287. Duration                    : 1 h 24 min
  288. Bit rate                    : 99 b/s
  289. Count of elements           : 1503
  290. Stream size                 : 61.5 KiB (0%)
  291. Language                    : Korean
  292. Default                     : No
  293. Forced                      : No
  294.  
  295. Text #19
  296. ID                          : 21
  297. Format                      : UTF-8
  298. Codec ID                    : S_TEXT/UTF8
  299. Codec ID/Info               : UTF-8 Plain Text
  300. Duration                    : 1 h 24 min
  301. Bit rate                    : 84 b/s
  302. Count of elements           : 1482
  303. Stream size                 : 52.1 KiB (0%)
  304. Language                    : Norwegian Bokmal
  305. Default                     : No
  306. Forced                      : No
  307.  
  308. Text #20
  309. ID                          : 22
  310. Format                      : UTF-8
  311. Codec ID                    : S_TEXT/UTF8
  312. Codec ID/Info               : UTF-8 Plain Text
  313. Duration                    : 1 h 24 min
  314. Bit rate                    : 81 b/s
  315. Count of elements           : 1480
  316. Stream size                 : 50.3 KiB (0%)
  317. Language                    : Dutch
  318. Default                     : No
  319. Forced                      : No
  320.  
  321. Text #21
  322. ID                          : 23
  323. Format                      : UTF-8
  324. Codec ID                    : S_TEXT/UTF8
  325. Codec ID/Info               : UTF-8 Plain Text
  326. Duration                    : 1 h 24 min
  327. Bit rate                    : 79 b/s
  328. Count of elements           : 1489
  329. Stream size                 : 49.2 KiB (0%)
  330. Language                    : Polish
  331. Default                     : No
  332. Forced                      : No
  333.  
  334. Text #22
  335. ID                          : 24
  336. Format                      : UTF-8
  337. Codec ID                    : S_TEXT/UTF8
  338. Codec ID/Info               : UTF-8 Plain Text
  339. Duration                    : 1 h 24 min
  340. Bit rate                    : 86 b/s
  341. Count of elements           : 1475
  342. Stream size                 : 53.5 KiB (0%)
  343. Language                    : Portuguese
  344. Default                     : No
  345. Forced                      : No
  346.  
  347. Text #23
  348. ID                          : 25
  349. Format                      : UTF-8
  350. Codec ID                    : S_TEXT/UTF8
  351. Codec ID/Info               : UTF-8 Plain Text
  352. Duration                    : 1 h 24 min
  353. Bit rate                    : 86 b/s
  354. Count of elements           : 1496
  355. Stream size                 : 53.0 KiB (0%)
  356. Title                       : Brazilian
  357. Language                    : Portuguese
  358. Default                     : No
  359. Forced                      : No
  360.  
  361. Text #24
  362. ID                          : 26
  363. Format                      : UTF-8
  364. Codec ID                    : S_TEXT/UTF8
  365. Codec ID/Info               : UTF-8 Plain Text
  366. Duration                    : 1 h 24 min
  367. Bit rate                    : 92 b/s
  368. Count of elements           : 1483
  369. Stream size                 : 56.8 KiB (0%)
  370. Language                    : Romanian
  371. Default                     : No
  372. Forced                      : No
  373.  
  374. Text #25
  375. ID                          : 27
  376. Format                      : UTF-8
  377. Codec ID                    : S_TEXT/UTF8
  378. Codec ID/Info               : UTF-8 Plain Text
  379. Duration                    : 1 h 24 min
  380. Bit rate                    : 137 b/s
  381. Count of elements           : 1489
  382. Stream size                 : 84.4 KiB (0%)
  383. Language                    : Russian
  384. Default                     : No
  385. Forced                      : No
  386.  
  387. Text #26
  388. ID                          : 28
  389. Format                      : UTF-8
  390. Codec ID                    : S_TEXT/UTF8
  391. Codec ID/Info               : UTF-8 Plain Text
  392. Duration                    : 1 h 24 min
  393. Bit rate                    : 86 b/s
  394. Count of elements           : 1370
  395. Stream size                 : 53.5 KiB (0%)
  396. Language                    : Swedish
  397. Default                     : No
  398. Forced                      : No
  399.  
  400. Text #27
  401. ID                          : 29
  402. Format                      : UTF-8
  403. Codec ID                    : S_TEXT/UTF8
  404. Codec ID/Info               : UTF-8 Plain Text
  405. Duration                    : 1 h 24 min
  406. Bit rate                    : 206 b/s
  407. Count of elements           : 1485
  408. Stream size                 : 127 KiB (0%)
  409. Language                    : Thai
  410. Default                     : No
  411. Forced                      : No
  412.  
  413. Text #28
  414. ID                          : 30
  415. Format                      : UTF-8
  416. Codec ID                    : S_TEXT/UTF8
  417. Codec ID/Info               : UTF-8 Plain Text
  418. Duration                    : 1 h 24 min
  419. Bit rate                    : 89 b/s
  420. Count of elements           : 1481
  421. Stream size                 : 55.4 KiB (0%)
  422. Language                    : Turkish
  423. Default                     : No
  424. Forced                      : No
  425.  
  426. Text #29
  427. ID                          : 31
  428. Format                      : UTF-8
  429. Codec ID                    : S_TEXT/UTF8
  430. Codec ID/Info               : UTF-8 Plain Text
  431. Duration                    : 1 h 24 min
  432. Bit rate                    : 133 b/s
  433. Count of elements           : 1492
  434. Stream size                 : 82.5 KiB (0%)
  435. Language                    : Vietnamese
  436. Default                     : No
  437. Forced                      : No
  438.  
  439. Text #30
  440. ID                          : 32
  441. Format                      : UTF-8
  442. Codec ID                    : S_TEXT/UTF8
  443. Codec ID/Info               : UTF-8 Plain Text
  444. Duration                    : 1 h 24 min
  445. Bit rate                    : 84 b/s
  446. Count of elements           : 1488
  447. Stream size                 : 52.1 KiB (0%)
  448. Title                       : Simplified
  449. Language                    : Chinese
  450. Default                     : No
  451. Forced                      : No
  452.  
  453. Text #31
  454. ID                          : 33
  455. Format                      : UTF-8
  456. Codec ID                    : S_TEXT/UTF8
  457. Codec ID/Info               : UTF-8 Plain Text
  458. Duration                    : 1 h 24 min
  459. Bit rate                    : 84 b/s
  460. Count of elements           : 1487
  461. Stream size                 : 52.3 KiB (0%)
  462. Title                       : Traditional
  463. Language                    : Chinese
  464. Default                     : No
  465. Forced                      : No