The text below is selected, press Ctrl+C to copy to your clipboard. (⌘+C on Mac) No line numbers will be copied.
480p

8th September 2020 08:22:06 AM | Views: 21
  1. General
  2. Unique ID                                : 298462289763741800975711080915066161007 (0xE089BF013CDF2F3A77F4905E1BF0076F)
  3. Format                                   : Matroska
  4. Format version                           : Version 4
  5. File size                                : 702 MiB
  6. Duration                                 : 2 h 24 min
  7. Overall bit rate                         : 678 kb/s
  8. Movie name                               : Casino Royale (2006) 480p BluRay x264 [Hindi DD 2.0 + English DD 2.0] ~LustMovies.pro~
  9. Encoded date                             : UTC 2020-09-07 19:21:18
  10. Writing application                      : HandBrake 1.2.1 2019021900
  11. Writing library                          : Lavf58.20.100
  12. ErrorDetectionType                       : Per level 1
  13.  
  14. Video
  15. ID                                       : 1
  16. Format                                   : AVC
  17. Format/Info                              : Advanced Video Codec
  18. Format profile                           : [email protected]
  19. Format settings                          : CABAC / 4 Ref Frames
  20. Format settings, CABAC                   : Yes
  21. Format settings, Reference frames        : 4 frames
  22. Codec ID                                 : V_MPEG4/ISO/AVC
  23. Duration                                 : 2 h 24 min
  24. Bit rate                                 : 450 kb/s
  25. Width                                    : 720 pixels
  26. Height                                   : 300 pixels
  27. Display aspect ratio                     : 2.40:1
  28. Frame rate mode                          : Constant
  29. Frame rate                               : 23.976 (24000/1001) FPS
  30. Color space                              : YUV
  31. Chroma subsampling                       : 4:2:0
  32. Bit depth                                : 8 bits
  33. Scan type                                : Progressive
  34. Bits/(Pixel*Frame)                       : 0.087
  35. Stream size                              : 489 MiB (70%)
  36. Title                                    : LustMovies.pro
  37. Writing library                          : x264 core 152 r2854 e9a5903
  38. Encoding settings                        : cabac=1 / ref=1 / deblock=1:-1:-1 / analyse=0x3:0x113 / me=hex / subme=2 / psy=1 / psy_rd=1.00:0.15 / mixed_ref=0 / me_range=16 / chroma_me=1 / trellis=0 / 8x8dct=1 / cqm=0 / deadzone=21,11 / fast_pskip=1 / chroma_qp_offset=0 / threads=9 / lookahead_threads=2 / sliced_threads=0 / nr=0 / decimate=1 / interlaced=0 / bluray_compat=0 / constrained_intra=0 / bframes=3 / b_pyramid=2 / b_adapt=1 / b_bias=0 / direct=1 / weightb=1 / open_gop=0 / weightp=1 / keyint=240 / keyint_min=24 / scenecut=40 / intra_refresh=0 / rc_lookahead=10 / rc=abr / mbtree=1 / bitrate=450 / ratetol=1.0 / qcomp=0.60 / qpmin=0 / qpmax=69 / qpstep=4 / vbv_maxrate=17500 / vbv_bufsize=17500 / nal_hrd=none / filler=0 / ip_ratio=1.40 / aq=1:1.00
  39. Default                                  : Yes
  40. Forced                                   : No
  41. Color range                              : Limited
  42. Color primaries                          : BT.709
  43. Transfer characteristics                 : BT.709
  44. Matrix coefficients                      : BT.709
  45. Duration_Source                          : General_Duration
  46.  
  47. Audio #1
  48. ID                                       : 2
  49. Format                                   : AC-3
  50. Format/Info                              : Audio Coding 3
  51. Commercial name                          : Dolby Digital
  52. Codec ID                                 : A_AC3
  53. Duration                                 : 2 h 24 min
  54. Bit rate mode                            : Constant
  55. Bit rate                                 : 96.0 kb/s
  56. Channel(s)                               : 2 channels
  57. Channel layout                           : L R
  58. Sampling rate                            : 48.0 kHz
  59. Frame rate                               : 31.250 FPS (1536 SPF)
  60. Compression mode                         : Lossy
  61. Delay relative to video                  : 11 ms
  62. Stream size                              : 99.3 MiB (14%)
  63. Title                                    : LustMovies.pro
  64. Language                                 : Hindi
  65. Service kind                             : Complete Main
  66. Default                                  : Yes
  67. Forced                                   : No
  68. Duration_Source                          : General_Duration
  69.  
  70. Audio #2
  71. ID                                       : 3
  72. Format                                   : AC-3
  73. Format/Info                              : Audio Coding 3
  74. Commercial name                          : Dolby Digital
  75. Codec ID                                 : A_AC3
  76. Duration                                 : 2 h 24 min
  77. Bit rate mode                            : Constant
  78. Bit rate                                 : 96.0 kb/s
  79. Channel(s)                               : 2 channels
  80. Channel layout                           : L R
  81. Sampling rate                            : 48.0 kHz
  82. Frame rate                               : 31.250 FPS (1536 SPF)
  83. Compression mode                         : Lossy
  84. Delay relative to video                  : -5 ms
  85. Stream size                              : 99.3 MiB (14%)
  86. Title                                    : Stereo
  87. Language                                 : English
  88. Service kind                             : Complete Main
  89. Default                                  : No
  90. Forced                                   : No
  91. Duration_Source                          : General_Duration
  92.  
  93. Text #1
  94. ID                                       : 4
  95. Format                                   : PGS
  96. Codec ID                                 : S_HDMV/PGS
  97. Codec ID/Info                            : Picture based subtitle format used on BDs/HD-DVDs
  98. Title                                    : LustMovies.pro
  99. Language                                 : English
  100. Default                                  : No
  101. Forced                                   : No
  102.  
  103. Text #2
  104. ID                                       : 5
  105. Format                                   : PGS
  106. Codec ID                                 : S_HDMV/PGS
  107. Codec ID/Info                            : Picture based subtitle format used on BDs/HD-DVDs
  108. Language                                 : Hindi
  109. Default                                  : Yes
  110. Forced                                   : Yes
  111.  
  112. General
  113. Unique ID                                : 277878590254245433917402587861990320148 (0xD10D7843FDF68637ECE2AB0FF3A52814)
  114. Format                                   : Matroska
  115. Format version                           : Version 4
  116. File size                                : 503 MiB
  117. Duration                                 : 1 h 46 min
  118. Overall bit rate                         : 663 kb/s
  119. Movie name                               : Quantum of Solace (2008) 480p BluRay x264 [Hindi DD 2.0 + English DD 2.0] ~LustMovies.pro~
  120. Encoded date                             : UTC 2020-09-07 19:51:14
  121. Writing application                      : HandBrake 1.2.1 2019021900
  122. Writing library                          : Lavf58.20.100
  123. ErrorDetectionType                       : Per level 1
  124.  
  125. Video
  126. ID                                       : 1
  127. Format                                   : AVC
  128. Format/Info                              : Advanced Video Codec
  129. Format profile                           : [email protected]
  130. Format settings                          : CABAC / 4 Ref Frames
  131. Format settings, CABAC                   : Yes
  132. Format settings, Reference frames        : 4 frames
  133. Codec ID                                 : V_MPEG4/ISO/AVC
  134. Duration                                 : 1 h 46 min
  135. Bit rate                                 : 450 kb/s
  136. Width                                    : 720 pixels
  137. Height                                   : 300 pixels
  138. Display aspect ratio                     : 2.40:1
  139. Frame rate mode                          : Constant
  140. Frame rate                               : 23.976 (24000/1001) FPS
  141. Color space                              : YUV
  142. Chroma subsampling                       : 4:2:0
  143. Bit depth                                : 8 bits
  144. Scan type                                : Progressive
  145. Bits/(Pixel*Frame)                       : 0.087
  146. Stream size                              : 348 MiB (69%)
  147. Title                                    : LustMovies.pro
  148. Writing library                          : x264 core 152 r2854 e9a5903
  149. Encoding settings                        : cabac=1 / ref=1 / deblock=1:-1:-1 / analyse=0x3:0x113 / me=hex / subme=2 / psy=1 / psy_rd=1.00:0.15 / mixed_ref=0 / me_range=16 / chroma_me=1 / trellis=0 / 8x8dct=1 / cqm=0 / deadzone=21,11 / fast_pskip=1 / chroma_qp_offset=0 / threads=9 / lookahead_threads=2 / sliced_threads=0 / nr=0 / decimate=1 / interlaced=0 / bluray_compat=0 / constrained_intra=0 / bframes=3 / b_pyramid=2 / b_adapt=1 / b_bias=0 / direct=1 / weightb=1 / open_gop=0 / weightp=1 / keyint=240 / keyint_min=24 / scenecut=40 / intra_refresh=0 / rc_lookahead=10 / rc=abr / mbtree=1 / bitrate=450 / ratetol=1.0 / qcomp=0.60 / qpmin=0 / qpmax=69 / qpstep=4 / vbv_maxrate=17500 / vbv_bufsize=17500 / nal_hrd=none / filler=0 / ip_ratio=1.40 / aq=1:1.00
  150. Default                                  : Yes
  151. Forced                                   : No
  152. Color range                              : Limited
  153. Color primaries                          : BT.709
  154. Transfer characteristics                 : BT.709
  155. Matrix coefficients                      : BT.709
  156. Duration_Source                          : General_Duration
  157.  
  158. Audio #1
  159. ID                                       : 2
  160. Format                                   : AC-3
  161. Format/Info                              : Audio Coding 3
  162. Commercial name                          : Dolby Digital
  163. Codec ID                                 : A_AC3
  164. Duration                                 : 1 h 46 min
  165. Bit rate mode                            : Constant
  166. Bit rate                                 : 96.0 kb/s
  167. Channel(s)                               : 2 channels
  168. Channel layout                           : L R
  169. Sampling rate                            : 48.0 kHz
  170. Frame rate                               : 31.250 FPS (1536 SPF)
  171. Compression mode                         : Lossy
  172. Delay relative to video                  : -5 ms
  173. Stream size                              : 72.9 MiB (14%)
  174. Title                                    : LustMovies.pro
  175. Language                                 : Hindi
  176. Service kind                             : Complete Main
  177. Default                                  : Yes
  178. Forced                                   : No
  179. Duration_Source                          : General_Duration
  180.  
  181. Audio #2
  182. ID                                       : 3
  183. Format                                   : AC-3
  184. Format/Info                              : Audio Coding 3
  185. Commercial name                          : Dolby Digital
  186. Codec ID                                 : A_AC3
  187. Duration                                 : 1 h 46 min
  188. Bit rate mode                            : Constant
  189. Bit rate                                 : 96.0 kb/s
  190. Channel(s)                               : 2 channels
  191. Channel layout                           : L R
  192. Sampling rate                            : 48.0 kHz
  193. Frame rate                               : 31.250 FPS (1536 SPF)
  194. Compression mode                         : Lossy
  195. Delay relative to video                  : -5 ms
  196. Stream size                              : 72.9 MiB (14%)
  197. Title                                    : Stereo
  198. Language                                 : English
  199. Service kind                             : Complete Main
  200. Default                                  : No
  201. Forced                                   : No
  202. Duration_Source                          : General_Duration
  203.  
  204. Text #1
  205. ID                                       : 4
  206. Format                                   : ASS
  207. Codec ID                                 : S_TEXT/ASS
  208. Codec ID/Info                            : Advanced Sub Station Alpha
  209. Compression mode                         : Lossless
  210. Title                                    : LustMovies.pro
  211. Language                                 : English
  212. Default                                  : No
  213. Forced                                   : No
  214.  
  215. Text #2
  216. ID                                       : 5
  217. Format                                   : PGS
  218. Codec ID                                 : S_HDMV/PGS
  219. Codec ID/Info                            : Picture based subtitle format used on BDs/HD-DVDs
  220. Language                                 : Hindi
  221. Default                                  : No
  222. Forced                                   : No
  223.  
  224. General
  225. Unique ID                                : 234067471101169507310240748643695172414 (0xB017C1522BAB7F0C1F83872AD6939B3E)
  226. Format                                   : Matroska
  227. Format version                           : Version 4
  228. File size                                : 658 MiB
  229. Duration                                 : 2 h 23 min
  230. Overall bit rate                         : 643 kb/s
  231. Movie name                               : Skyfall (2012) 480p BluRay x264 [Hindi DD 2.0 + English DD 2.0] ~LustMovies.pro~
  232. Encoded date                             : UTC 2020-09-07 20:13:06
  233. Writing application                      : HandBrake 1.2.1 2019021900
  234. Writing library                          : Lavf58.20.100
  235. ErrorDetectionType                       : Per level 1
  236.  
  237. Video
  238. ID                                       : 1
  239. Format                                   : AVC
  240. Format/Info                              : Advanced Video Codec
  241. Format profile                           : [email protected]
  242. Format settings                          : CABAC / 4 Ref Frames
  243. Format settings, CABAC                   : Yes
  244. Format settings, Reference frames        : 4 frames
  245. Codec ID                                 : V_MPEG4/ISO/AVC
  246. Duration                                 : 2 h 23 min
  247. Bit rate                                 : 450 kb/s
  248. Width                                    : 720 pixels
  249. Height                                   : 300 pixels
  250. Display aspect ratio                     : 2.40:1
  251. Frame rate mode                          : Constant
  252. Frame rate                               : 23.976 (24000/1001) FPS
  253. Color space                              : YUV
  254. Chroma subsampling                       : 4:2:0
  255. Bit depth                                : 8 bits
  256. Scan type                                : Progressive
  257. Bits/(Pixel*Frame)                       : 0.087
  258. Stream size                              : 448 MiB (68%)
  259. Title                                    : LustMovies.pro
  260. Writing library                          : x264 core 152 r2854 e9a5903
  261. Encoding settings                        : cabac=1 / ref=1 / deblock=1:-1:-1 / analyse=0x3:0x113 / me=hex / subme=2 / psy=1 / psy_rd=1.00:0.15 / mixed_ref=0 / me_range=16 / chroma_me=1 / trellis=0 / 8x8dct=1 / cqm=0 / deadzone=21,11 / fast_pskip=1 / chroma_qp_offset=0 / threads=9 / lookahead_threads=2 / sliced_threads=0 / nr=0 / decimate=1 / interlaced=0 / bluray_compat=0 / constrained_intra=0 / bframes=3 / b_pyramid=2 / b_adapt=1 / b_bias=0 / direct=1 / weightb=1 / open_gop=0 / weightp=1 / keyint=240 / keyint_min=24 / scenecut=40 / intra_refresh=0 / rc_lookahead=10 / rc=abr / mbtree=1 / bitrate=450 / ratetol=1.0 / qcomp=0.60 / qpmin=0 / qpmax=69 / qpstep=4 / vbv_maxrate=17500 / vbv_bufsize=17500 / nal_hrd=none / filler=0 / ip_ratio=1.40 / aq=1:1.00
  262. Default                                  : Yes
  263. Forced                                   : No
  264. Color range                              : Limited
  265. Color primaries                          : BT.709
  266. Transfer characteristics                 : BT.709
  267. Matrix coefficients                      : BT.709
  268. Duration_Source                          : General_Duration
  269.  
  270. Audio #1
  271. ID                                       : 2
  272. Format                                   : AC-3
  273. Format/Info                              : Audio Coding 3
  274. Commercial name                          : Dolby Digital
  275. Codec ID                                 : A_AC3
  276. Duration                                 : 2 h 23 min
  277. Bit rate mode                            : Constant
  278. Bit rate                                 : 96.0 kb/s
  279. Channel(s)                               : 2 channels
  280. Channel layout                           : L R
  281. Sampling rate                            : 48.0 kHz
  282. Frame rate                               : 31.250 FPS (1536 SPF)
  283. Compression mode                         : Lossy
  284. Delay relative to video                  : -5 ms
  285. Stream size                              : 98.3 MiB (15%)
  286. Title                                    : LustMovies.pro
  287. Language                                 : Hindi
  288. Service kind                             : Complete Main
  289. Default                                  : Yes
  290. Forced                                   : No
  291. Duration_Source                          : General_Duration
  292.  
  293. Audio #2
  294. ID                                       : 3
  295. Format                                   : AC-3
  296. Format/Info                              : Audio Coding 3
  297. Commercial name                          : Dolby Digital
  298. Codec ID                                 : A_AC3
  299. Duration                                 : 2 h 23 min
  300. Bit rate mode                            : Constant
  301. Bit rate                                 : 96.0 kb/s
  302. Channel(s)                               : 2 channels
  303. Channel layout                           : L R
  304. Sampling rate                            : 48.0 kHz
  305. Frame rate                               : 31.250 FPS (1536 SPF)
  306. Compression mode                         : Lossy
  307. Delay relative to video                  : -5 ms
  308. Stream size                              : 98.3 MiB (15%)
  309. Title                                    : Stereo
  310. Language                                 : English
  311. Service kind                             : Complete Main
  312. Default                                  : No
  313. Forced                                   : No
  314. Duration_Source                          : General_Duration
  315.  
  316. Text
  317. ID                                       : 4
  318. Format                                   : PGS
  319. Codec ID                                 : S_HDMV/PGS
  320. Codec ID/Info                            : Picture based subtitle format used on BDs/HD-DVDs
  321. Title                                    : LustMovies.pro
  322. Language                                 : Hindi
  323. Default                                  : No
  324. Forced                                   : No
  325.  
  326. General
  327. Unique ID                                : 313406764784834977706736626347184647814 (0xEBC7F282BA9675A81BF34D8CD08A6E86)
  328. Format                                   : Matroska
  329. Format version                           : Version 4
  330. File size                                : 725 MiB
  331. Duration                                 : 2 h 28 min
  332. Overall bit rate                         : 685 kb/s
  333. Movie name                               : Spectre (2015) 480p BluRay x264 [Hindi DD 2.0 + English DD 2.0] ~LustMovies.pro~
  334. Encoded date                             : UTC 2020-09-07 20:42:19
  335. Writing application                      : HandBrake 1.2.1 2019021900
  336. Writing library                          : Lavf58.20.100
  337. ErrorDetectionType                       : Per level 1
  338.  
  339. Video
  340. ID                                       : 1
  341. Format                                   : AVC
  342. Format/Info                              : Advanced Video Codec
  343. Format profile                           : [email protected]
  344. Format settings                          : CABAC / 4 Ref Frames
  345. Format settings, CABAC                   : Yes
  346. Format settings, Reference frames        : 4 frames
  347. Codec ID                                 : V_MPEG4/ISO/AVC
  348. Duration                                 : 2 h 28 min
  349. Bit rate                                 : 479 kb/s
  350. Nominal bit rate                         : 450 kb/s
  351. Width                                    : 720 pixels
  352. Height                                   : 300 pixels
  353. Display aspect ratio                     : 2.40:1
  354. Frame rate mode                          : Constant
  355. Frame rate                               : 23.976 (24000/1001) FPS
  356. Color space                              : YUV
  357. Chroma subsampling                       : 4:2:0
  358. Bit depth                                : 8 bits
  359. Scan type                                : Progressive
  360. Bits/(Pixel*Frame)                       : 0.092
  361. Stream size                              : 507 MiB (70%)
  362. Title                                    : LustMovies.pro
  363. Writing library                          : x264 core 152 r2854 e9a5903
  364. Encoding settings                        : cabac=1 / ref=1 / deblock=1:-1:-1 / analyse=0x3:0x113 / me=hex / subme=2 / psy=1 / psy_rd=1.00:0.15 / mixed_ref=0 / me_range=16 / chroma_me=1 / trellis=0 / 8x8dct=1 / cqm=0 / deadzone=21,11 / fast_pskip=1 / chroma_qp_offset=0 / threads=9 / lookahead_threads=2 / sliced_threads=0 / nr=0 / decimate=1 / interlaced=0 / bluray_compat=0 / constrained_intra=0 / bframes=3 / b_pyramid=2 / b_adapt=1 / b_bias=0 / direct=1 / weightb=1 / open_gop=0 / weightp=1 / keyint=240 / keyint_min=24 / scenecut=40 / intra_refresh=0 / rc_lookahead=10 / rc=abr / mbtree=1 / bitrate=450 / ratetol=1.0 / qcomp=0.60 / qpmin=0 / qpmax=69 / qpstep=4 / vbv_maxrate=17500 / vbv_bufsize=17500 / nal_hrd=none / filler=0 / ip_ratio=1.40 / aq=1:1.00
  365. Default                                  : Yes
  366. Forced                                   : No
  367. Color range                              : Limited
  368. Color primaries                          : BT.709
  369. Transfer characteristics                 : BT.709
  370. Matrix coefficients                      : BT.709
  371. Duration_Source                          : General_Duration
  372.  
  373. Audio #1
  374. ID                                       : 2
  375. Format                                   : AC-3
  376. Format/Info                              : Audio Coding 3
  377. Commercial name                          : Dolby Digital
  378. Codec ID                                 : A_AC3
  379. Duration                                 : 2 h 28 min
  380. Bit rate mode                            : Constant
  381. Bit rate                                 : 96.0 kb/s
  382. Channel(s)                               : 2 channels
  383. Channel layout                           : L R
  384. Sampling rate                            : 48.0 kHz
  385. Frame rate                               : 31.250 FPS (1536 SPF)
  386. Compression mode                         : Lossy
  387. Delay relative to video                  : -5 ms
  388. Stream size                              : 102 MiB (14%)
  389. Title                                    : LustMovies.pro
  390. Language                                 : Hindi
  391. Service kind                             : Complete Main
  392. Default                                  : Yes
  393. Forced                                   : No
  394. Duration_Source                          : General_Duration
  395.  
  396. Audio #2
  397. ID                                       : 3
  398. Format                                   : AC-3
  399. Format/Info                              : Audio Coding 3
  400. Commercial name                          : Dolby Digital
  401. Codec ID                                 : A_AC3
  402. Duration                                 : 2 h 28 min
  403. Bit rate mode                            : Constant
  404. Bit rate                                 : 96.0 kb/s
  405. Channel(s)                               : 2 channels
  406. Channel layout                           : L R
  407. Sampling rate                            : 48.0 kHz
  408. Frame rate                               : 31.250 FPS (1536 SPF)
  409. Compression mode                         : Lossy
  410. Delay relative to video                  : -5 ms
  411. Stream size                              : 102 MiB (14%)
  412. Title                                    : Stereo
  413. Language                                 : English
  414. Service kind                             : Complete Main
  415. Default                                  : No
  416. Forced                                   : No
  417. Duration_Source                          : General_Duration
  418.  
  419. Text #1
  420. ID                                       : 4
  421. Format                                   : PGS
  422. Codec ID                                 : S_HDMV/PGS
  423. Codec ID/Info                            : Picture based subtitle format used on BDs/HD-DVDs
  424. Title                                    : LustMovies.pro
  425. Language                                 : English
  426. Default                                  : No
  427. Forced                                   : No
  428.  
  429. Text #2
  430. ID                                       : 5
  431. Format                                   : PGS
  432. Codec ID                                 : S_HDMV/PGS
  433. Codec ID/Info                            : Picture based subtitle format used on BDs/HD-DVDs
  434. Language                                 : Hindi
  435. Default                                  : Yes
  436. Forced                                   : Yes