The text below is selected, press Ctrl+C to copy to your clipboard. (⌘+C on Mac) No line numbers will be copied.
Crazy Stupid Love (2011) UNRATED...

16th September 2020 07:58:11 AM | Views: 22
  1. Format                                   : Matroska
  2. Format version                           : Version 4
  3. File size                                : 6.57 GiB
  4. Duration                                 : 1 h 58 min
  5. Overall bit rate mode                    : Variable
  6. Overall bit rate                         : 7 961 kb/s
  7. Movie name                               : Crazy Stupid Love (2011) UNRATED 1080p BluRay x264 Dual Audio [Hindi VCD DD2.0 + English DTS-HD 5.1] ESub 6.56GB [www.MoviezAddiction.space]
  8. Encoded date                             : UTC 2020-09-15 09:44:29
  9. Writing application                      : mkvmerge v48.0.0 ('Fortress Around Your Heart') 64-bit
  10. Writing library                          : libebml v1.4.0 + libmatroska v1.6.0
  11.  
  12. Video
  13. ID                                       : 1
  14. Format                                   : AVC
  15. Format/Info                              : Advanced Video Codec
  16. Format profile                           : [email protected]
  17. Format settings                          : CABAC / 5 Ref Frames
  18. Format settings, CABAC                   : Yes
  19. Format settings, Reference frames        : 5 frames
  20. Codec ID                                 : V_MPEG4/ISO/AVC
  21. Duration                                 : 1 h 58 min
  22. Bit rate                                 : 4 000 kb/s
  23. Width                                    : 1 920 pixels
  24. Height                                   : 800 pixels
  25. Display aspect ratio                     : 2.40:1
  26. Frame rate mode                          : Constant
  27. Frame rate                               : 23.976 (24000/1001) FPS
  28. Color space                              : YUV
  29. Chroma subsampling                       : 4:2:0
  30. Bit depth                                : 8 bits
  31. Scan type                                : Progressive
  32. Bits/(Pixel*Frame)                       : 0.109
  33. Stream size                              : 3.30 GiB (50%)
  34. Title                                    : [www.MoviezAddiction.space]
  35. Writing library                          : x264 core 160 r3000 33f9e14
  36. Encoding settings                        : cabac=1 / ref=5 / deblock=1:0:0 / analyse=0x3:0x113 / me=hex / subme=8 / psy=1 / psy_rd=1.00:0.00 / mixed_ref=1 / me_range=16 / chroma_me=1 / trellis=2 / 8x8dct=1 / cqm=0 / deadzone=21,11 / fast_pskip=1 / chroma_qp_offset=-2 / threads=25 / lookahead_threads=4 / sliced_threads=0 / nr=0 / decimate=1 / interlaced=0 / bluray_compat=0 / constrained_intra=0 / bframes=3 / b_pyramid=2 / b_adapt=1 / b_bias=0 / direct=3 / weightb=1 / open_gop=0 / weightp=2 / keyint=250 / keyint_min=23 / scenecut=40 / intra_refresh=0 / rc_lookahead=50 / rc=2pass / mbtree=1 / bitrate=4000 / ratetol=1.0 / qcomp=0.60 / qpmin=0 / qpmax=69 / qpstep=4 / cplxblur=20.0 / qblur=0.5 / ip_ratio=1.40 / aq=1:1.00
  37. Default                                  : Yes
  38. Forced                                   : No
  39.  
  40. Audio #1
  41. ID                                       : 2
  42. Format                                   : DTS XLL
  43. Format/Info                              : Digital Theater Systems
  44. Commercial name                          : DTS-HD Master Audio
  45. Codec ID                                 : A_DTS
  46. Duration                                 : 1 h 58 min
  47. Bit rate mode                            : Variable
  48. Bit rate                                 : 3 697 kb/s
  49. Channel(s)                               : 6 channels
  50. Channel layout                           : C L R Ls Rs LFE
  51. Sampling rate                            : 48.0 kHz
  52. Frame rate                               : 93.750 FPS (512 SPF)
  53. Bit depth                                : 24 bits
  54. Compression mode                         : Lossless
  55. Stream size                              : 3.05 GiB (46%)
  56. Title                                    : [www.MoviezAddiction.space] - English
  57. Language                                 : English
  58. Default                                  : No
  59. Forced                                   : No
  60.  
  61. Audio #2
  62. ID                                       : 3
  63. Format                                   : AC-3
  64. Format/Info                              : Audio Coding 3
  65. Commercial name                          : Dolby Digital
  66. Codec ID                                 : A_AC3
  67. Duration                                 : 1 h 58 min
  68. Bit rate mode                            : Constant
  69. Bit rate                                 : 224 kb/s
  70. Channel(s)                               : 2 channels
  71. Channel layout                           : L R
  72. Sampling rate                            : 48.0 kHz
  73. Frame rate                               : 31.250 FPS (1536 SPF)
  74. Compression mode                         : Lossy
  75. Stream size                              : 189 MiB (3%)
  76. Title                                    : [www.MoviezAddiction.space] - Hindi
  77. Language                                 : Hindi
  78. Service kind                             : Complete Main
  79. Default                                  : Yes
  80. Forced                                   : Yes
  81.  
  82. Text
  83. ID                                       : 4
  84. Format                                   : PGS
  85. Codec ID                                 : S_HDMV/PGS
  86. Codec ID/Info                            : Picture based subtitle format used on BDs/HD-DVDs
  87. Duration                                 : 1 h 57 min
  88. Bit rate                                 : 38.6 kb/s
  89. Count of elements                        : 3598
  90. Stream size                              : 32.5 MiB (0%)
  91. Title                                    : [www.MoviezAddiction.space] - English [PGS]
  92. Language                                 : English
  93. Default                                  : Yes
  94. Forced                                   : Yes
  95.  
  96. Menu
  97. 00:00:00.000                             : en:00:00:00.000
  98. 00:08:25.714                             : en:00:08:25.714
  99. 00:20:56.422                             : en:00:20:56.422
  100. 00:28:40.552                             : en:00:28:40.552
  101. 00:38:32.560                             : en:00:38:32.560
  102. 00:51:33.674                             : en:00:51:33.674
  103. 01:02:41.007                             : en:01:02:41.007
  104. 01:11:00.548                             : en:01:11:00.548
  105. 01:21:12.117                             : en:01:21:12.117
  106. 01:28:07.199                             : en:01:28:07.199
  107. 01:40:51.963                             : en:01:40:51.963
  108. 01:48:00.808                             : en:01:48:00.808
  109. 01:52:20.525                             : en:01:52:20.525