The text below is selected, press Ctrl+C to copy to your clipboard. (⌘+C on Mac) No line numbers will be copied.
MotherAndroid (2021) 2160p 10bit SDR

9th January 2022 06:54:20 AM | Views: 13
  1. Format                                   : Matroska
  2. Format version                           : Version 4
  3. File size                                : 12.5 GiB
  4. Duration                                 : 1 h 51 min
  5. Overall bit rate                         : 16.0 Mb/s
  6. Movie name                               : MotherAndroid (2021) 2160p UHD WEB-DL x265 10bit SDR HEVC Dual Audio [Hindi DDP5.1 + English DDP5.1] MSubs 12.4GB [www.MoviezAddiction.art]
  7. Encoded date                             : UTC 2022-01-09 05:47:56
  8. Writing application                      : mkvmerge v47.0.0 ('Black Flag') 64-bit
  9. Writing library                          : libebml v1.3.10 + libmatroska v1.5.2
  10.  
  11. Video
  12. ID                                       : 1
  13. Format                                   : HEVC
  14. Format/Info                              : High Efficiency Video Coding
  15. Format profile                           : Main [email protected]@Main
  16. Codec ID                                 : V_MPEGH/ISO/HEVC
  17. Duration                                 : 1 h 50 min
  18. Bit rate                                 : 14.9 Mb/s
  19. Width                                    : 3 840 pixels
  20. Height                                   : 2 160 pixels
  21. Display aspect ratio                     : 16:9
  22. Frame rate mode                          : Constant
  23. Frame rate                               : 23.976 (24000/1001) FPS
  24. Color space                              : YUV
  25. Chroma subsampling                       : 4:2:0
  26. Bit depth                                : 10 bits
  27. Bits/(Pixel*Frame)                       : 0.075
  28. Stream size                              : 11.5 GiB (92%)
  29. Title                                    : [www.MoviezAddiction.art]
  30. Default                                  : Yes
  31. Forced                                   : No
  32.  
  33. Audio #1
  34. ID                                       : 2
  35. Format                                   : E-AC-3
  36. Format/Info                              : Enhanced AC-3
  37. Commercial name                          : Dolby Digital Plus
  38. Codec ID                                 : A_EAC3
  39. Duration                                 : 1 h 51 min
  40. Bit rate mode                            : Constant
  41. Bit rate                                 : 640 kb/s
  42. Channel(s)                               : 6 channels
  43. Channel layout                           : L R C LFE Ls Rs
  44. Sampling rate                            : 48.0 kHz
  45. Frame rate                               : 31.250 FPS (1536 SPF)
  46. Compression mode                         : Lossy
  47. Delay relative to video                  : 8 s 0 ms
  48. Stream size                              : 510 MiB (4%)
  49. Title                                    : [www.MoviezAddiction.art] - Hindi
  50. Language                                 : Hindi
  51. Service kind                             : Complete Main
  52. Default                                  : Yes
  53. Forced                                   : No
  54.  
  55. Audio #2
  56. ID                                       : 3
  57. Format                                   : E-AC-3
  58. Format/Info                              : Enhanced AC-3
  59. Commercial name                          : Dolby Digital Plus
  60. Codec ID                                 : A_EAC3
  61. Duration                                 : 1 h 51 min
  62. Bit rate mode                            : Constant
  63. Bit rate                                 : 640 kb/s
  64. Channel(s)                               : 6 channels
  65. Channel layout                           : L R C LFE Ls Rs
  66. Sampling rate                            : 48.0 kHz
  67. Frame rate                               : 31.250 FPS (1536 SPF)
  68. Compression mode                         : Lossy
  69. Delay relative to video                  : 8 s 0 ms
  70. Stream size                              : 510 MiB (4%)
  71. Title                                    : [www.MoviezAddiction.art] - English
  72. Language                                 : English
  73. Service kind                             : Complete Main
  74. Default                                  : No
  75. Forced                                   : No
  76.  
  77. Text #1
  78. ID                                       : 4
  79. Format                                   : UTF-8
  80. Codec ID                                 : S_TEXT/UTF8
  81. Codec ID/Info                            : UTF-8 Plain Text
  82. Duration                                 : 1 h 43 min
  83. Bit rate                                 : 42 b/s
  84. Count of elements                        : 1168
  85. Stream size                              : 31.9 KiB (0%)
  86. Title                                    : [www.MoviezAddiction.art] - English [SRT]
  87. Language                                 : English
  88. Default                                  : Yes
  89. Forced                                   : No
  90.  
  91. Text #2
  92. ID                                       : 5
  93. Format                                   : UTF-8
  94. Codec ID                                 : S_TEXT/UTF8
  95. Codec ID/Info                            : UTF-8 Plain Text
  96. Duration                                 : 1 h 44 min
  97. Bit rate                                 : 51 b/s
  98. Count of elements                        : 1586
  99. Stream size                              : 39.0 KiB (0%)
  100. Title                                    : [www.MoviezAddiction.art] - English [SDH] [SRT]
  101. Language                                 : English
  102. Default                                  : No
  103. Forced                                   : No