The text below is selected, press Ctrl+C to copy to your clipboard. (⌘+C on Mac) No line numbers will be copied.
Doraemon Nobitas Chronicle of the...

23rd January 2023 10:37:17 AM | Views: 3
  1. Format                                   : Matroska
  2. Format version                           : Version 4
  3. File size                                : 1.47 GiB
  4. Duration                                 : 1 h 50 min
  5. Overall bit rate                         : 1 895 kb/s
  6. Movie name                               : Doraemon Nobita's Chronicle of the Moon Exploration (2019) 1080p BluRay x265 10bit HEVC Hindi TV-DL DDP2.0 ESub 1.46GB [MoviezAddiction]
  7. Encoded date                             : UTC 2023-01-23 09:33:22
  8. Writing application                      : mkvmerge v72.0.0 ('Minuano (Six-eight)') 64-bit
  9. Writing library                          : libebml v1.4.4 + libmatroska v1.7.1
  10.  
  11. Video
  12. ID                                       : 1
  13. Format                                   : HEVC
  14. Format/Info                              : High Efficiency Video Coding
  15. Format profile                           : Main [email protected]@Main
  16. Codec ID                                 : V_MPEGH/ISO/HEVC
  17. Duration                                 : 1 h 50 min
  18. Bit rate                                 : 1 701 kb/s
  19. Width                                    : 1 920 pixels
  20. Height                                   : 1 080 pixels
  21. Display aspect ratio                     : 16:9
  22. Frame rate mode                          : Variable
  23. Frame rate                               : 23.976 (24000/1001) FPS
  24. Color space                              : YUV
  25. Chroma subsampling                       : 4:2:0
  26. Bit depth                                : 10 bits
  27. Bits/(Pixel*Frame)                       : 0.034
  28. Stream size                              : 1.32 GiB (90%)
  29. Default                                  : Yes
  30. Forced                                   : No
  31.  
  32. Audio
  33. ID                                       : 2
  34. Format                                   : E-AC-3
  35. Format/Info                              : Enhanced AC-3
  36. Commercial name                          : Dolby Digital Plus
  37. Codec ID                                 : A_EAC3
  38. Duration                                 : 1 h 50 min
  39. Bit rate mode                            : Constant
  40. Bit rate                                 : 192 kb/s
  41. Channel(s)                               : 2 channels
  42. Channel layout                           : L R
  43. Sampling rate                            : 48.0 kHz
  44. Frame rate                               : 31.250 FPS (1536 SPF)
  45. Compression mode                         : Lossy
  46. Stream size                              : 152 MiB (10%)
  47. Title                                    : Hindi
  48. Language                                 : Hindi
  49. Service kind                             : Complete Main
  50. Default                                  : Yes
  51. Forced                                   : No
  52.  
  53. Text
  54. ID                                       : 3
  55. Format                                   : ASS
  56. Codec ID                                 : S_TEXT/ASS
  57. Codec ID/Info                            : Advanced Sub Station Alpha
  58. Duration                                 : 1 h 50 min
  59. Bit rate                                 : 91 b/s
  60. Frame rate                               : 0.249 FPS
  61. Count of elements                        : 1654
  62. Compression mode                         : Lossless
  63. Stream size                              : 74.0 KiB (0%)
  64. Title                                    : English [ASS]
  65. Language                                 : English
  66. Default                                  : Yes
  67. Forced                                   : No
  68.  
  69. Menu
  70. 00:00:02.009                             : en:第 01 章
  71. 00:03:41.270                             : en:第 02 章
  72. 00:05:10.901                             : en:第 03 章
  73. 00:22:29.856                             : en:第 04 章
  74. 00:40:45.659                             : en:第 05 章
  75. 01:03:49.333                             : en:第 06 章
  76. 01:29:06.640                             : en:第 07 章
  77. 01:46:37.482                             : en:第 08 章
  78. 01:50:00.601                             : en:第 09 章