The text below is selected, press Ctrl+C to copy to your clipboard. (⌘+C on Mac) No line numbers will be copied.
Snatch (2000) 1080p BluRay REMUX...

20th January 2023 05:33:36 PM | Views: 7
  1. Format                                   : Matroska
  2. Format version                           : Version 4
  3. File size                                : 24.7 GiB
  4. Duration                                 : 1 h 42 min
  5. Overall bit rate mode                    : Variable
  6. Overall bit rate                         : 34.4 Mb/s
  7. Movie name                               : Snatch (2000) 1080p BluRay REMUX x264 Dual Audio [Hindi DTH DD2.0 + English DTS-HD MA 7.1] ESub 24.7GB [MoviezAddiction]
  8. Encoded date                             : UTC 2023-01-10 16:04:17
  9. Writing application                      : mkvmerge v72.0.0 ('Minuano (Six-eight)') 64-bit
  10. Writing library                          : libebml v1.4.4 + libmatroska v1.7.1
  11.  
  12. Video
  13. ID                                       : 1
  14. ID in the original source medium         : 4113 (0x1011)
  15. Format                                   : AVC
  16. Format/Info                              : Advanced Video Codec
  17. Format profile                           : [email protected]
  18. Format settings                          : CABAC / 4 Ref Frames
  19. Format settings, CABAC                   : Yes
  20. Format settings, Reference frames        : 4 frames
  21. Codec ID                                 : V_MPEG4/ISO/AVC
  22. Duration                                 : 1 h 42 min
  23. Bit rate mode                            : Variable
  24. Bit rate                                 : 29.9 Mb/s
  25. Maximum bit rate                         : 31.0 Mb/s
  26. Width                                    : 1 920 pixels
  27. Height                                   : 1 080 pixels
  28. Display aspect ratio                     : 16:9
  29. Frame rate mode                          : Constant
  30. Frame rate                               : 23.976 (24000/1001) FPS
  31. Color space                              : YUV
  32. Chroma subsampling                       : 4:2:0
  33. Bit depth                                : 8 bits
  34. Scan type                                : Progressive
  35. Bits/(Pixel*Frame)                       : 0.602
  36. Stream size                              : 21.5 GiB (87%)
  37. Default                                  : Yes
  38. Forced                                   : No
  39. Color range                              : Limited
  40. Color primaries                          : BT.709
  41. Transfer characteristics                 : BT.709
  42. Matrix coefficients                      : BT.709
  43. Original source medium                   : Blu-ray
  44.  
  45. Audio #1
  46. ID                                       : 2
  47. Format                                   : AC-3
  48. Format/Info                              : Audio Coding 3
  49. Commercial name                          : Dolby Digital
  50. Codec ID                                 : A_AC3
  51. Duration                                 : 1 h 42 min
  52. Bit rate mode                            : Constant
  53. Bit rate                                 : 224 kb/s
  54. Channel(s)                               : 2 channels
  55. Channel layout                           : L R
  56. Sampling rate                            : 48.0 kHz
  57. Frame rate                               : 31.250 FPS (1536 SPF)
  58. Compression mode                         : Lossy
  59. Delay relative to video                  : -41 ms
  60. Stream size                              : 165 MiB (1%)
  61. Title                                    : Hindi
  62. Language                                 : Hindi
  63. Service kind                             : Complete Main
  64. Default                                  : Yes
  65. Forced                                   : No
  66.  
  67. Audio #2
  68. ID                                       : 3
  69. Format                                   : DTS XLL
  70. Format/Info                              : Digital Theater Systems
  71. Commercial name                          : DTS-HD Master Audio
  72. Codec ID                                 : A_DTS
  73. Duration                                 : 1 h 42 min
  74. Bit rate mode                            : Variable
  75. Bit rate                                 : 4 223 kb/s
  76. Channel(s)                               : 8 channels
  77. Channel layout                           : C L R LFE Lb Rb Lss Rss
  78. Sampling rate                            : 48.0 kHz
  79. Frame rate                               : 93.750 FPS (512 SPF)
  80. Bit depth                                : 24 bits
  81. Compression mode                         : Lossless
  82. Delay relative to video                  : 4 s 200 ms
  83. Stream size                              : 3.03 GiB (12%)
  84. Title                                    : English
  85. Language                                 : English
  86. Default                                  : No
  87. Forced                                   : No
  88.  
  89. Text
  90. ID                                       : 4
  91. ID in the original source medium         : 4608 (0x1200)
  92. Format                                   : PGS
  93. Codec ID                                 : S_HDMV/PGS
  94. Codec ID/Info                            : Picture based subtitle format used on BDs/HD-DVDs
  95. Duration                                 : 1 h 38 min
  96. Bit rate                                 : 37.8 kb/s
  97. Count of elements                        : 2694
  98. Stream size                              : 26.7 MiB (0%)
  99. Title                                    : English [PGS]
  100. Language                                 : English
  101. Default                                  : Yes
  102. Forced                                   : No
  103. Original source medium                   : Blu-ray
  104.  
  105. Menu
  106. 00:00:00.041                             : en:Chapter 01
  107. 00:06:58.208                             : en:Chapter 02
  108. 00:11:53.670                             : en:Chapter 03
  109. 00:16:31.865                             : en:Chapter 04
  110. 00:22:48.032                             : en:Chapter 05
  111. 00:30:03.342                             : en:Chapter 06
  112. 00:36:28.060                             : en:Chapter 07
  113. 00:41:39.538                             : en:Chapter 08
  114. 00:48:16.517                             : en:Chapter 09
  115. 00:53:13.731                             : en:Chapter 10
  116. 00:59:06.417                             : en:Chapter 11
  117. 01:07:47.229                             : en:Chapter 12
  118. 01:13:24.649                             : en:Chapter 13
  119. 01:19:09.660                             : en:Chapter 14
  120. 01:28:12.703                             : en:Chapter 15
  121. 01:33:58.173                             : en:Chapter 16