The text below is selected, press Ctrl+C to copy to your clipboard. (⌘+C on Mac) No line numbers will be copied.
Eternals (2021) IMAX 1080p

13th January 2022 02:39:22 AM | Views: 234
  1. Format                                   : Matroska
  2. Format version                           : Version 4
  3. File size                                : 5.40 GiB
  4. Duration                                 : 2 h 35 min
  5. Overall bit rate                         : 4 962 kb/s
  6. Movie name                               : Eternals (2021) IMAX 1080p WEB-DL x264 Dual Audio [Hindi DDP5.1 + English DDP5.1 Atmos] MSubs 5.40GB [www.MoviezAddiction.art]
  7. Encoded date                             : UTC 2022-01-13 01:13:56
  8. Writing application                      : mkvmerge v47.0.0 ('Black Flag') 64-bit
  9. Writing library                          : libebml v1.3.10 + libmatroska v1.5.2
  10.  
  11. Video
  12. ID                                       : 1
  13. Format                                   : AVC
  14. Format/Info                              : Advanced Video Codec
  15. Format profile                           : [email protected]
  16. Format settings                          : CABAC / 4 Ref Frames
  17. Format settings, CABAC                   : Yes
  18. Format settings, Reference frames        : 4 frames
  19. Codec ID                                 : V_MPEG4/ISO/AVC
  20. Duration                                 : 2 h 35 min
  21. Bit rate                                 : 4 000 kb/s
  22. Width                                    : 1 920 pixels
  23. Height                                   : 1 012 pixels
  24. Display aspect ratio                     : 1.897
  25. Frame rate mode                          : Variable
  26. Frame rate                               : 23.976 (24000/1001) FPS
  27. Color space                              : YUV
  28. Chroma subsampling                       : 4:2:0
  29. Bit depth                                : 8 bits
  30. Scan type                                : Progressive
  31. Bits/(Pixel*Frame)                       : 0.086
  32. Stream size                              : 4.35 GiB (81%)
  33. Title                                    : [www.MoviezAddiction.art]
  34. Default                                  : Yes
  35. Forced                                   : No
  36. Color range                              : Limited
  37. Color primaries                          : BT.709
  38. Transfer characteristics                 : BT.709
  39. Matrix coefficients                      : BT.709
  40.  
  41. Audio #1
  42. ID                                       : 2
  43. Format                                   : E-AC-3
  44. Format/Info                              : Enhanced AC-3
  45. Commercial name                          : Dolby Digital Plus
  46. Codec ID                                 : A_EAC3
  47. Duration                                 : 2 h 35 min
  48. Bit rate mode                            : Constant
  49. Bit rate                                 : 192 kb/s
  50. Channel(s)                               : 6 channels
  51. Channel layout                           : L R C LFE Ls Rs
  52. Sampling rate                            : 48.0 kHz
  53. Frame rate                               : 31.250 FPS (1536 SPF)
  54. Compression mode                         : Lossy
  55. Stream size                              : 214 MiB (4%)
  56. Title                                    : [www.MoviezAddiction.art] - Hindi
  57. Language                                 : Hindi
  58. Service kind                             : Complete Main
  59. Default                                  : Yes
  60. Forced                                   : No
  61.  
  62. Audio #2
  63. ID                                       : 3
  64. Format                                   : E-AC-3 JOC
  65. Format/Info                              : Enhanced AC-3 with Joint Object Coding
  66. Commercial name                          : Dolby Digital Plus with Dolby Atmos
  67. Codec ID                                 : A_EAC3
  68. Duration                                 : 2 h 35 min
  69. Bit rate mode                            : Constant
  70. Bit rate                                 : 768 kb/s
  71. Channel(s)                               : 6 channels
  72. Channel layout                           : L R C LFE Ls Rs
  73. Sampling rate                            : 48.0 kHz
  74. Frame rate                               : 31.250 FPS (1536 SPF)
  75. Compression mode                         : Lossy
  76. Stream size                              : 856 MiB (15%)
  77. Title                                    : [www.MoviezAddiction.art] - English
  78. Language                                 : English
  79. Service kind                             : Complete Main
  80. Default                                  : No
  81. Forced                                   : No
  82. Complexity index                         : 16
  83. Number of dynamic objects                : 15
  84. Bed channel count                        : 1 channel
  85. Bed channel configuration                : LFE
  86.  
  87. Text #1
  88. ID                                       : 4
  89. Format                                   : UTF-8
  90. Codec ID                                 : S_TEXT/UTF8
  91. Codec ID/Info                            : UTF-8 Plain Text
  92. Duration                                 : 2 h 33 min
  93. Bit rate                                 : 39 b/s
  94. Count of elements                        : 1708
  95. Stream size                              : 44.4 KiB (0%)
  96. Title                                    : [www.MoviezAddiction.art] - English [SRT]
  97. Language                                 : English
  98. Default                                  : Yes
  99. Forced                                   : No
  100.  
  101. Text #2
  102. ID                                       : 5
  103. Format                                   : UTF-8
  104. Codec ID                                 : S_TEXT/UTF8
  105. Codec ID/Info                            : UTF-8 Plain Text
  106. Duration                                 : 2 h 33 min
  107. Bit rate                                 : 49 b/s
  108. Count of elements                        : 2165
  109. Stream size                              : 56.0 KiB (0%)
  110. Title                                    : [www.MoviezAddiction.art] - English [SDH] [SRT]
  111. Language                                 : English
  112. Default                                  : No
  113. Forced                                   : No