The text below is selected, press Ctrl+C to copy to your clipboard. (⌘+C on Mac) No line numbers will be copied.
The A-Team (2010) EXTENDED 1080p...

22nd January 2023 05:11:33 PM | Views: 6
  1. Format                                   : Matroska
  2. Format version                           : Version 4
  3. File size                                : 8.03 GiB
  4. Duration                                 : 2 h 13 min
  5. Overall bit rate mode                    : Variable
  6. Overall bit rate                         : 8 602 kb/s
  7. Movie name                               : The A-Team (2010) EXTENDED 1080p BluRay x264 Dual Audio [Hindi BD5.1 + English DTS-HD MA 5.1] ESub 8.02GB [MoviezAddiction]
  8. Encoded date                             : UTC 2023-01-22 15:50:45
  9. Writing application                      : mkvmerge v72.0.0 ('Minuano (Six-eight)') 64-bit
  10. Writing library                          : libebml v1.4.4 + libmatroska v1.7.1
  11.  
  12. Video
  13. ID                                       : 1
  14. Format                                   : AVC
  15. Format/Info                              : Advanced Video Codec
  16. Format profile                           : [email protected]
  17. Format settings                          : CABAC / 5 Ref Frames
  18. Format settings, CABAC                   : Yes
  19. Format settings, Reference frames        : 5 frames
  20. Codec ID                                 : V_MPEG4/ISO/AVC
  21. Duration                                 : 2 h 13 min
  22. Bit rate                                 : 4 000 kb/s
  23. Width                                    : 1 920 pixels
  24. Height                                   : 816 pixels
  25. Display aspect ratio                     : 2.35:1
  26. Frame rate mode                          : Variable
  27. Frame rate                               : 23.976 (24000/1001) FPS
  28. Color space                              : YUV
  29. Chroma subsampling                       : 4:2:0
  30. Bit depth                                : 8 bits
  31. Scan type                                : Progressive
  32. Bits/(Pixel*Frame)                       : 0.106
  33. Stream size                              : 3.73 GiB (46%)
  34. Default                                  : Yes
  35. Forced                                   : No
  36. Color range                              : Limited
  37. Color primaries                          : BT.709
  38. Transfer characteristics                 : BT.709
  39. Matrix coefficients                      : BT.709
  40.  
  41. Audio #1
  42. ID                                       : 2
  43. Format                                   : AC-3
  44. Format/Info                              : Audio Coding 3
  45. Commercial name                          : Dolby Digital
  46. Codec ID                                 : A_AC3
  47. Duration                                 : 2 h 13 min
  48. Bit rate mode                            : Constant
  49. Bit rate                                 : 448 kb/s
  50. Channel(s)                               : 6 channels
  51. Channel layout                           : L R C LFE Ls Rs
  52. Sampling rate                            : 48.0 kHz
  53. Frame rate                               : 31.250 FPS (1536 SPF)
  54. Compression mode                         : Lossy
  55. Delay relative to video                  : -26 ms
  56. Stream size                              : 428 MiB (5%)
  57. Title                                    : Hindi
  58. Language                                 : Hindi
  59. Service kind                             : Complete Main
  60. Default                                  : Yes
  61. Forced                                   : No
  62.  
  63. Audio #2
  64. ID                                       : 3
  65. Format                                   : DTS XLL
  66. Format/Info                              : Digital Theater Systems
  67. Commercial name                          : DTS-HD Master Audio
  68. Codec ID                                 : A_DTS
  69. Duration                                 : 2 h 13 min
  70. Bit rate mode                            : Variable
  71. Bit rate                                 : 4 105 kb/s
  72. Channel(s)                               : 6 channels
  73. Channel layout                           : C L R Ls Rs LFE
  74. Sampling rate                            : 48.0 kHz
  75. Frame rate                               : 93.750 FPS (512 SPF)
  76. Bit depth                                : 24 bits
  77. Compression mode                         : Lossless
  78. Stream size                              : 3.83 GiB (48%)
  79. Title                                    : English
  80. Language                                 : English
  81. Default                                  : No
  82. Forced                                   : No
  83.  
  84. Text
  85. ID                                       : 4
  86. Format                                   : PGS
  87. Codec ID                                 : S_HDMV/PGS
  88. Codec ID/Info                            : Picture based subtitle format used on BDs/HD-DVDs
  89. Duration                                 : 2 h 12 min
  90. Bit rate                                 : 45.7 kb/s
  91. Frame rate                               : 0.496 FPS
  92. Count of elements                        : 3948
  93. Stream size                              : 43.3 MiB (0%)
  94. Title                                    : English [PGS]
  95. Language                                 : English
  96. Default                                  : Yes
  97. Forced                                   : No
  98.  
  99. Menu
  100. 00:00:00.026                             : 第 01 章
  101. 00:05:17.426                             : 第 02 章
  102. 00:13:31.295                             : 第 03 章
  103. 00:21:10.795                             : 第 04 章
  104. 00:26:32.367                             : 第 05 章
  105. 00:37:42.828                             : 第 06 章
  106. 00:45:23.580                             : 第 07 章
  107. 00:49:30.285                             : 第 08 章
  108. 00:56:53.895                             : 第 09 章
  109. 01:02:40.574                             : 第 10 章
  110. 01:09:43.080                             : 第 11 章
  111. 01:15:19.666                             : 第 12 章
  112. 01:23:06.382                             : 第 13 章
  113. 01:28:54.605                             : 第 14 章
  114. 01:35:56.860                             : 第 15 章
  115. 01:38:35.977                             : 第 16 章
  116. 01:43:12.545                             : 第 17 章
  117. 01:49:42.852                             : 第 18 章
  118. 01:57:19.600                             : 第 19 章
  119. 02:07:00.680                             : 第 20 章