The text below is selected, press Ctrl+C to copy to your clipboard. (⌘+C on Mac) No line numbers will be copied.
The Babysitter Killer Queen (2020)...

10th September 2020 10:06:09 AM | Views: 39
  1. Format                                   : Matroska
  2. Format version                           : Version 4
  3. File size                                : 303 MiB
  4. Duration                                 : 1 h 42 min
  5. Overall bit rate                         : 414 kb/s
  6. Movie name                               : The Babysitter Killer Queen (2020) 480p WEB-DL x264 Dual Audio [Hindi DD2.0 + English DD2.0] ESub 303MB [www.MoviezAddiction.space]
  7. Encoded date                             : UTC 2020-09-10 08:02:20
  8. Writing application                      : mkvmerge v48.0.0 ('Fortress Around Your Heart') 64-bit
  9. Writing library                          : libebml v1.4.0 + libmatroska v1.6.0
  10.  
  11. Video
  12. ID                                       : 1
  13. Format                                   : AVC
  14. Format/Info                              : Advanced Video Codec
  15. Format profile                           : [email protected]
  16. Format settings                          : CABAC / 4 Ref Frames
  17. Format settings, CABAC                   : Yes
  18. Format settings, Reference frames        : 4 frames
  19. Codec ID                                 : V_MPEG4/ISO/AVC
  20. Duration                                 : 1 h 42 min
  21. Bit rate                                 : 350 kb/s
  22. Width                                    : 720 pixels
  23. Height                                   : 304 pixels
  24. Display aspect ratio                     : 2.35:1
  25. Frame rate mode                          : Constant
  26. Frame rate                               : 24.000 FPS
  27. Color space                              : YUV
  28. Chroma subsampling                       : 4:2:0
  29. Bit depth                                : 8 bits
  30. Scan type                                : Progressive
  31. Bits/(Pixel*Frame)                       : 0.067
  32. Stream size                              : 256 MiB (85%)
  33. Title                                    : [www.MoviezAddiction.space]
  34. Writing library                          : x264 core 160 r3009 4c9b076
  35. Encoding settings                        : cabac=1 / ref=3 / deblock=1:0:0 / analyse=0x1:0x111 / me=hex / subme=7 / psy=1 / psy_rd=1.00:0.00 / mixed_ref=1 / me_range=16 / chroma_me=1 / trellis=1 / 8x8dct=0 / cqm=0 / deadzone=21,11 / fast_pskip=1 / chroma_qp_offset=-2 / threads=9 / lookahead_threads=1 / sliced_threads=0 / nr=0 / decimate=1 / interlaced=0 / bluray_compat=0 / constrained_intra=0 / bframes=3 / b_pyramid=2 / b_adapt=1 / b_bias=0 / direct=1 / weightb=1 / open_gop=0 / weightp=2 / keyint=250 / keyint_min=24 / scenecut=40 / intra_refresh=0 / rc_lookahead=40 / rc=2pass / mbtree=1 / bitrate=350 / ratetol=1.0 / qcomp=0.60 / qpmin=0 / qpmax=69 / qpstep=4 / cplxblur=20.0 / qblur=0.5 / ip_ratio=1.40 / aq=1:1.00
  36. Default                                  : Yes
  37. Forced                                   : No
  38.  
  39. Audio #1
  40. ID                                       : 2
  41. Format                                   : AAC LC SBR
  42. Format/Info                              : Advanced Audio Codec Low Complexity with Spectral Band Replication
  43. Commercial name                          : HE-AAC
  44. Format settings                          : Explicit
  45. Codec ID                                 : A_AAC-2
  46. Duration                                 : 1 h 42 min
  47. Bit rate                                 : 30.7 kb/s
  48. Channel(s)                               : 2 channels
  49. Channel layout                           : L R
  50. Sampling rate                            : 48.0 kHz
  51. Frame rate                               : 23.438 FPS (2048 SPF)
  52. Compression mode                         : Lossy
  53. Stream size                              : 22.5 MiB (7%)
  54. Title                                    : [www.MoviezAddiction.space] - English
  55. Language                                 : English
  56. Default                                  : No
  57. Forced                                   : No
  58.  
  59. Audio #2
  60. ID                                       : 3
  61. Format                                   : AAC LC SBR
  62. Format/Info                              : Advanced Audio Codec Low Complexity with Spectral Band Replication
  63. Commercial name                          : HE-AAC
  64. Format settings                          : Explicit
  65. Codec ID                                 : A_AAC-2
  66. Duration                                 : 1 h 42 min
  67. Bit rate                                 : 30.7 kb/s
  68. Channel(s)                               : 2 channels
  69. Channel layout                           : L R
  70. Sampling rate                            : 48.0 kHz
  71. Frame rate                               : 23.438 FPS (2048 SPF)
  72. Compression mode                         : Lossy
  73. Stream size                              : 22.5 MiB (7%)
  74. Title                                    : [www.MoviezAddiction.space] - Hindi
  75. Language                                 : Hindi
  76. Default                                  : Yes
  77. Forced                                   : Yes
  78.  
  79. Text
  80. ID                                       : 4
  81. Format                                   : UTF-8
  82. Codec ID                                 : S_TEXT/UTF8
  83. Codec ID/Info                            : UTF-8 Plain Text
  84. Duration                                 : 1 h 40 min
  85. Bit rate                                 : 83 b/s
  86. Count of elements                        : 1839
  87. Stream size                              : 60.9 KiB (0%)
  88. Title                                    : [www.MoviezAddiction.space] - English [SRT]
  89. Language                                 : English
  90. Default                                  : Yes
  91. Forced                                   : Yes