The text below is selected, press Ctrl+C to copy to your clipboard. (⌘+C on Mac) No line numbers will be copied.
The Wonder (2022) 1080p NF...

17th November 2022 08:47:53 AM | Views: 18
  1. Format                                   : Matroska
  2. Format version                           : Version 4
  3. File size                                : 2.60 GiB
  4. Duration                                 : 1 h 49 min
  5. Overall bit rate                         : 3 398 kb/s
  6. Movie name                               : The Wonder (2022) 1080p NF WEB-DL x265 10bit HEVC Dual Audio [Hindi DDP5.1 + English DDP5.1 Atmos] ESub 2.60GB [MoviezAddiction.life]
  7. Encoded date                             : UTC 2022-11-16 15:11:36
  8. Writing application                      : mkvmerge v72.0.0 ('Minuano (Six-eight)') 64-bit
  9. Writing library                          : libebml v1.4.4 + libmatroska v1.7.1
  10.  
  11. Video
  12. ID                                       : 1
  13. Format                                   : HEVC
  14. Format/Info                              : High Efficiency Video Coding
  15. Format profile                           : Main [email protected]@Main
  16. Codec ID                                 : V_MPEGH/ISO/HEVC
  17. Duration                                 : 1 h 49 min
  18. Bit rate                                 : 1 988 kb/s
  19. Width                                    : 1 920 pixels
  20. Height                                   : 800 pixels
  21. Display aspect ratio                     : 2.40:1
  22. Frame rate mode                          : Constant
  23. Frame rate                               : 24.000 FPS
  24. Color space                              : YUV
  25. Chroma subsampling                       : 4:2:0
  26. Bit depth                                : 10 bits
  27. Bits/(Pixel*Frame)                       : 0.054
  28. Stream size                              : 1.52 GiB (59%)
  29. Default                                  : Yes
  30. Forced                                   : No
  31.  
  32. Audio #1
  33. ID                                       : 2
  34. Format                                   : E-AC-3
  35. Format/Info                              : Enhanced AC-3
  36. Commercial name                          : Dolby Digital Plus
  37. Codec ID                                 : A_EAC3
  38. Duration                                 : 1 h 49 min
  39. Bit rate mode                            : Constant
  40. Bit rate                                 : 640 kb/s
  41. Channel(s)                               : 6 channels
  42. Channel layout                           : L R C LFE Ls Rs
  43. Sampling rate                            : 48.0 kHz
  44. Frame rate                               : 31.250 FPS (1536 SPF)
  45. Compression mode                         : Lossy
  46. Stream size                              : 502 MiB (19%)
  47. Title                                    : Hindi
  48. Language                                 : Hindi
  49. Service kind                             : Complete Main
  50. Default                                  : Yes
  51. Forced                                   : No
  52.  
  53. Audio #2
  54. ID                                       : 3
  55. Format                                   : E-AC-3 JOC
  56. Format/Info                              : Enhanced AC-3 with Joint Object Coding
  57. Commercial name                          : Dolby Digital Plus with Dolby Atmos
  58. Codec ID                                 : A_EAC3
  59. Duration                                 : 1 h 49 min
  60. Bit rate mode                            : Constant
  61. Bit rate                                 : 768 kb/s
  62. Channel(s)                               : 6 channels
  63. Channel layout                           : L R C LFE Ls Rs
  64. Sampling rate                            : 48.0 kHz
  65. Frame rate                               : 31.250 FPS (1536 SPF)
  66. Compression mode                         : Lossy
  67. Stream size                              : 603 MiB (23%)
  68. Title                                    : English
  69. Language                                 : English
  70. Service kind                             : Complete Main
  71. Default                                  : No
  72. Forced                                   : No
  73. Complexity index                         : 16
  74. Number of dynamic objects                : 15
  75. Bed channel count                        : 1 channel
  76. Bed channel configuration                : LFE
  77.  
  78. Text
  79. ID                                       : 4
  80. Format                                   : UTF-8
  81. Codec ID                                 : S_TEXT/UTF8
  82. Codec ID/Info                            : UTF-8 Plain Text
  83. Duration                                 : 1 h 41 min
  84. Bit rate                                 : 36 b/s
  85. Frame rate                               : 0.164 FPS
  86. Count of elements                        : 1001
  87. Stream size                              : 26.9 KiB (0%)
  88. Title                                    : English [SRT]
  89. Language                                 : English
  90. Default                                  : Yes
  91. Forced                                   : No