The text below is selected, press Ctrl+C to copy to your clipboard. (⌘+C on Mac) No line numbers will be copied.
The Santa Clauses (2022) S01E01...

23rd November 2022 08:20:37 AM | Views: 11
  1. Format                                   : Matroska
  2. Format version                           : Version 4
  3. File size                                : 3.64 GiB
  4. Duration                                 : 32 min 31 s
  5. Overall bit rate                         : 16.0 Mb/s
  6. Movie name                               : The Santa Clauses (2022) S01E01 [Good to Ho] 2160p DSNP UHD WEB-DL x265 10bit DV HEVC English DDP5.1 Atmos ESub 3.64GB [MoviezAddiction.life]
  7. Encoded date                             : UTC 2022-11-23 04:46:26
  8. Writing application                      : mkvmerge v72.0.0 ('Minuano (Six-eight)') 64-bit
  9. Writing library                          : libebml v1.4.4 + libmatroska v1.7.1
  10.  
  11. Video
  12. ID                                       : 1
  13. Format                                   : HEVC
  14. Format/Info                              : High Efficiency Video Coding
  15. Format profile                           : Main [email protected]@High
  16. HDR format                               : Dolby Vision, Version 1.0, dvhe.05.06, BL+RPU
  17. Codec ID                                 : V_MPEGH/ISO/HEVC
  18. Duration                                 : 32 min 31 s
  19. Bit rate                                 : 15.3 Mb/s
  20. Width                                    : 3 840 pixels
  21. Height                                   : 2 160 pixels
  22. Display aspect ratio                     : 16:9
  23. Frame rate mode                          : Constant
  24. Frame rate                               : 23.976 (24000/1001) FPS
  25. Color space                              : YUV
  26. Chroma subsampling                       : 4:2:0
  27. Bit depth                                : 10 bits
  28. Bits/(Pixel*Frame)                       : 0.077
  29. Stream size                              : 3.47 GiB (95%)
  30. Default                                  : Yes
  31. Forced                                   : No
  32. Color range                              : Full
  33.  
  34. Audio
  35. ID                                       : 2
  36. Format                                   : E-AC-3 JOC
  37. Format/Info                              : Enhanced AC-3 with Joint Object Coding
  38. Commercial name                          : Dolby Digital Plus with Dolby Atmos
  39. Codec ID                                 : A_EAC3
  40. Duration                                 : 32 min 31 s
  41. Bit rate mode                            : Constant
  42. Bit rate                                 : 768 kb/s
  43. Channel(s)                               : 6 channels
  44. Channel layout                           : L R C LFE Ls Rs
  45. Sampling rate                            : 48.0 kHz
  46. Frame rate                               : 31.250 FPS (1536 SPF)
  47. Compression mode                         : Lossy
  48. Stream size                              : 179 MiB (5%)
  49. Title                                    : English
  50. Language                                 : English
  51. Service kind                             : Complete Main
  52. Default                                  : Yes
  53. Forced                                   : No
  54. Complexity index                         : 16
  55. Number of dynamic objects                : 15
  56. Bed channel count                        : 1 channel
  57. Bed channel configuration                : LFE
  58.  
  59. Text
  60. ID                                       : 3
  61. Format                                   : UTF-8
  62. Codec ID                                 : S_TEXT/UTF8
  63. Codec ID/Info                            : UTF-8 Plain Text
  64. Duration                                 : 28 min 30 s
  65. Bit rate                                 : 97 b/s
  66. Frame rate                               : 0.343 FPS
  67. Count of elements                        : 587
  68. Stream size                              : 20.3 KiB (0%)
  69. Title                                    : English [SRT]
  70. Language                                 : English
  71. Default                                  : Yes
  72. Forced                                   : No