Unbreakable (2000) 1080p Bluray x264

1st December 2020 06:42:52 AM | Views: 263
| |
  1. Format                                   : Matroska
  2. Format version                           : Version 4
  3. File size                                : 4.57 GiB
  4. Duration                                 : 1 h 46 min
  5. Overall bit rate mode                    : Variable
  6. Overall bit rate                         : 6 132 kb/s
  7. Movie name                               : Unbreakable (2000) 1080p Bluray x264 Dual Audio [ Hindi 2.0 + English DTS5.1 ] ESub [www.MoviezAddiction.me]
  8. Encoded date                             : UTC 2020-11-30 14:41:32
  9. Writing application                      : mkvmerge v51.0.0 ('I Wish') 64-bit
  10. Writing library                          : libebml v1.4.0 + libmatroska v1.6.2
  11.  
  12. Video
  13. ID                                       : 1
  14. Format                                   : AVC
  15. Format/Info                              : Advanced Video Codec
  16. Format profile                           : High@L4
  17. Format settings                          : CABAC / 5 Ref Frames
  18. Format settings, CABAC                   : Yes
  19. Format settings, Reference frames        : 5 frames
  20. Codec ID                                 : V_MPEG4/ISO/AVC
  21. Duration                                 : 1 h 46 min
  22. Bit rate                                 : 4 500 kb/s
  23. Width                                    : 1 920 pixels
  24. Height                                   : 816 pixels
  25. Display aspect ratio                     : 2.35:1
  26. Frame rate mode                          : Constant
  27. Frame rate                               : 23.976 (24000/1001) FPS
  28. Color space                              : YUV
  29. Chroma subsampling                       : 4:2:0
  30. Bit depth                                : 8 bits
  31. Scan type                                : Progressive
  32. Bits/(Pixel*Frame)                       : 0.120
  33. Stream size                              : 3.35 GiB (73%)
  34. Title                                    : [www.MoviezAddiction.me]
  35. Writing library                          : x264 core 160 r3000 33f9e14
  36. Encoding settings                        : cabac=1 / ref=5 / deblock=1:0:0 / analyse=0x3:0x113 / me=hex / subme=8 / psy=1 / psy_rd=1.00:0.00 / mixed_ref=1 / me_range=16 / chroma_me=1 / trellis=2 / 8x8dct=1 / cqm=0 / deadzone=21,11 / fast_pskip=1 / chroma_qp_offset=-2 / threads=12 / lookahead_threads=2 / sliced_threads=0 / nr=0 / decimate=1 / interlaced=0 / bluray_compat=0 / constrained_intra=0 / bframes=3 / b_pyramid=2 / b_adapt=1 / b_bias=0 / direct=3 / weightb=1 / open_gop=0 / weightp=2 / keyint=250 / keyint_min=23 / scenecut=40 / intra_refresh=0 / rc_lookahead=50 / rc=2pass / mbtree=1 / bitrate=4500 / ratetol=1.0 / qcomp=0.60 / qpmin=0 / qpmax=69 / qpstep=4 / cplxblur=20.0 / qblur=0.5 / ip_ratio=1.40 / aq=1:1.00
  37. Default                                  : Yes
  38. Forced                                   : No
  39.  
  40. Audio #1
  41. ID                                       : 3
  42. Format                                   : DTS
  43. Format/Info                              : Digital Theater Systems
  44. Codec ID                                 : A_DTS
  45. Duration                                 : 1 h 46 min
  46. Bit rate mode                            : Constant
  47. Bit rate                                 : 1 510 kb/s
  48. Channel(s)                               : 6 channels
  49. Channel layout                           : C L R Ls Rs LFE
  50. Sampling rate                            : 48.0 kHz
  51. Frame rate                               : 93.750 FPS (512 SPF)
  52. Bit depth                                : 24 bits
  53. Compression mode                         : Lossy
  54. Stream size                              : 1.13 GiB (25%)
  55. Title                                    : [www.MoviezAddiction.me]
  56. Default                                  : No
  57. Forced                                   : No
  58.  
  59. Audio #2
  60. ID                                       : 4
  61. Format                                   : MPEG Audio
  62. Format version                           : Version 1
  63. Format profile                           : Layer 3
  64. Format settings                          : Joint stereo / MS Stereo
  65. Codec ID                                 : A_MPEG/L3
  66. Codec ID/Hint                            : MP3
  67. Duration                                 : 1 h 46 min
  68. Bit rate mode                            : Variable
  69. Bit rate                                 : 128 kb/s
  70. Channel(s)                               : 2 channels
  71. Sampling rate                            : 44.1 kHz
  72. Frame rate                               : 38.281 FPS (1152 SPF)
  73. Compression mode                         : Lossy
  74. Delay relative to video                  : -160 ms
  75. Stream size                              : 96.1 MiB (2%)
  76. Title                                    : [www.MoviezAddiction.me]
  77. Writing library                          : LAME3.99r
  78. Encoding settings                        : -m j -V 4 -q 3 -lowpass 17 --abr 128
  79. Language                                 : Hindi
  80. Default                                  : Yes
  81. Forced                                   : Yes
  82.  
  83. Text
  84. ID                                       : 2
  85. Format                                   : UTF-8
  86. Codec ID                                 : S_TEXT/UTF8
  87. Codec ID/Info                            : UTF-8 Plain Text
  88. Duration                                 : 1 h 40 min
  89. Bit rate                                 : 41 b/s
  90. Count of elements                        : 898
  91. Stream size                              : 31.0 KiB (0%)
  92. Title                                    : [www.MoviezAddiction.me]
  93. Language                                 : English
  94. Default                                  : Yes
  95. Forced                                   : No
  96.  
  97. Menu
  98. 00:00:00.000                             : en:00:00:00.000
  99. 00:08:44.023                             : en:00:08:44.023
  100. 00:09:50.673                             : en:00:09:50.673
  101. 00:14:57.063                             : en:00:14:57.063
  102. 00:16:30.948                             : en:00:16:30.948
  103. 00:20:57.339                             : en:00:20:57.339
  104. 00:25:04.920                             : en:00:25:04.920
  105. 00:32:26.069                             : en:00:32:26.069
  106. 00:34:37.158                             : en:00:34:37.158
  107. 00:36:28.395                             : en:00:36:28.395
  108. 00:40:55.703                             : en:00:40:55.703
  109. 00:43:22.975                             : en:00:43:22.975
  110. 00:49:59.038                             : en:00:49:59.038
  111. 00:54:53.040                             : en:00:54:53.040
  112. 00:56:57.414                             : en:00:56:57.414
  113. 01:00:00.096                             : en:01:00:00.096
  114. 01:02:51.393                             : en:01:02:51.393
  115. 01:04:35.038                             : en:01:04:35.038
  116. 01:07:37.262                             : en:01:07:37.262
  117. 01:12:16.832                             : en:01:12:16.832
  118. 01:13:28.446                             : en:01:13:28.446
  119. 01:17:33.315                             : en:01:17:33.315
  120. 01:22:19.685                             : en:01:22:19.685
  121. 01:31:38.618                             : en:01:31:38.618
  122. 01:33:13.588                             : en:01:33:13.588
  123. 01:35:53.081                             : en:01:35:53.081
  124. 01:37:49.989                             : en:01:37:49.989
  125. 01:42:15.463                             : en:01:42:15.463
  126. 01:46:37.391                             : en:01:46:37.391
  127. 01:46:38.809                             : en:01:46:38.809