The text below is selected, press Ctrl+C to copy to your clipboard. (⌘+C on Mac) No line numbers will be copied.
The Room (2019) 1080p Bluray...

16th September 2020 06:49:06 AM | Views: 19
  1. Format                                   : Matroska
  2. Format version                           : Version 4
  3. File size                                : 1.68 GiB
  4. Duration                                 : 1 h 39 min
  5. Overall bit rate                         : 2 424 kb/s
  6. Movie name                               : The Room (2019) 1080p Bluray x265 10bit HEVC Dual Audio [ Hindi DDP5.1 + English DD5.1 ] ESub [www.MoviezAddiction.space]
  7. Encoded date                             : UTC 2020-09-16 04:37:25
  8. Writing application                      : mkvmerge v48.0.0 ('Fortress Around Your Heart') 64-bit
  9. Writing library                          : libebml v1.4.0 + libmatroska v1.6.0
  10.  
  11. Video
  12. ID                                       : 1
  13. Format                                   : HEVC
  14. Format/Info                              : High Efficiency Video Coding
  15. Format profile                           : Main [email protected]@Main
  16. Codec ID                                 : V_MPEGH/ISO/HEVC
  17. Duration                                 : 1 h 39 min
  18. Bit rate                                 : 1 576 kb/s
  19. Width                                    : 1 920 pixels
  20. Height                                   : 808 pixels
  21. Display aspect ratio                     : 2.40:1
  22. Frame rate mode                          : Constant
  23. Frame rate                               : 24.000 FPS
  24. Color space                              : YUV
  25. Chroma subsampling                       : 4:2:0
  26. Bit depth                                : 10 bits
  27. Bits/(Pixel*Frame)                       : 0.042
  28. Stream size                              : 1.09 GiB (65%)
  29. Title                                    : [www.MoviezAddiction.space]
  30. Default                                  : Yes
  31. Forced                                   : No
  32.  
  33. Audio #1
  34. ID                                       : 2
  35. Format                                   : AAC LC SBR
  36. Format/Info                              : Advanced Audio Codec Low Complexity with Spectral Band Replication
  37. Commercial name                          : HE-AAC
  38. Format settings                          : Explicit
  39. Codec ID                                 : A_AAC-2
  40. Duration                                 : 1 h 39 min
  41. Bit rate                                 : 206 kb/s
  42. Channel(s)                               : 6 channels
  43. Channel layout                           : C L R Ls Rs LFE
  44. Sampling rate                            : 48.0 kHz
  45. Frame rate                               : 23.438 FPS (2048 SPF)
  46. Compression mode                         : Lossy
  47. Delay relative to video                  : 23 ms
  48. Stream size                              : 146 MiB (9%)
  49. Title                                    : [www.MoviezAddiction.space]
  50. Language                                 : English
  51. Default                                  : No
  52. Forced                                   : No
  53.  
  54. Audio #2
  55. ID                                       : 5
  56. Format                                   : E-AC-3
  57. Format/Info                              : Enhanced AC-3
  58. Commercial name                          : Dolby Digital Plus
  59. Codec ID                                 : A_EAC3
  60. Duration                                 : 1 h 39 min
  61. Bit rate mode                            : Constant
  62. Bit rate                                 : 640 kb/s
  63. Channel(s)                               : 6 channels
  64. Channel layout                           : L R C LFE Ls Rs
  65. Sampling rate                            : 48.0 kHz
  66. Frame rate                               : 31.250 FPS (1536 SPF)
  67. Compression mode                         : Lossy
  68. Stream size                              : 454 MiB (26%)
  69. Title                                    : [www.MoviezAddiction.space]
  70. Language                                 : Hindi
  71. Service kind                             : Complete Main
  72. Default                                  : Yes
  73. Forced                                   : Yes
  74.  
  75. Text #1
  76. ID                                       : 3
  77. Format                                   : UTF-8
  78. Codec ID                                 : S_TEXT/UTF8
  79. Codec ID/Info                            : UTF-8 Plain Text
  80. Duration                                 : 1 h 38 min
  81. Bit rate                                 : 29 b/s
  82. Count of elements                        : 1219
  83. Stream size                              : 21.3 KiB (0%)
  84. Title                                    : [www.MoviezAddiction.space]
  85. Language                                 : English
  86. Default                                  : No
  87. Forced                                   : No
  88.  
  89. Text #2
  90. ID                                       : 4
  91. Format                                   : UTF-8
  92. Codec ID                                 : S_TEXT/UTF8
  93. Codec ID/Info                            : UTF-8 Plain Text
  94. Duration                                 : 1 h 38 min
  95. Bit rate                                 : 29 b/s
  96. Count of elements                        : 1219
  97. Stream size                              : 21.3 KiB (0%)
  98. Title                                    : [www.MoviezAddiction.space]
  99. Language                                 : English
  100. Default                                  : Yes
  101. Forced                                   : Yes
  102.  
  103. Menu
  104. 00:00:00.000                             : :Chapter 1
  105. 00:08:41.800                             : :Chapter 2
  106. 00:19:31.800                             : :Chapter 3
  107. 00:29:18.800                             : :Chapter 4
  108. 00:38:25.800                             : :Chapter 5
  109. 00:49:13.400                             : :Chapter 6
  110. 01:01:41.400                             : :Chapter 7
  111. 01:10:17.800                             : :Chapter 8
  112. 01:19:53.800                             : :Chapter 9
  113. 01:30:37.800                             : :Chapter 10