The text below is selected, press Ctrl+C to copy to your clipboard. (⌘+C on Mac) No line numbers will be copied.
Resident Evil - Welcome to...

20th January 2022 08:35:51 AM | Views: 57
  1. Format                                   : Matroska
  2. Format version                           : Version 4
  3. File size                                : 11.8 GiB
  4. Duration                                 : 1 h 47 min
  5. Overall bit rate                         : 15.7 Mb/s
  6. Movie name                               : Resident Evil - Welcome to Raccoon City (2021) 2160p UHD WEB-DL x265 10bit HDR HEVC Dual Audio [Hindi DDP5.1 + English DDP5.1] MSubs 11.7GB [www.MoviezAddiction.art]
  7. Encoded date                             : UTC 2022-01-20 04:54:08
  8. Writing application                      : mkvmerge v47.0.0 ('Black Flag') 64-bit
  9. Writing library                          : libebml v1.3.10 + libmatroska v1.5.2
  10.  
  11. Video
  12. ID                                       : 1
  13. Format                                   : HEVC
  14. Format/Info                              : High Efficiency Video Coding
  15. Format profile                           : Main [email protected]@Main
  16. HDR format                               : SMPTE ST 2094 App 4, Version 1, HDR10+ Profile B compatible
  17. Codec ID                                 : V_MPEGH/ISO/HEVC
  18. Duration                                 : 1 h 47 min
  19. Bit rate                                 : 14.6 Mb/s
  20. Width                                    : 3 840 pixels
  21. Height                                   : 1 600 pixels
  22. Display aspect ratio                     : 2.40:1
  23. Frame rate mode                          : Constant
  24. Frame rate                               : 23.976 (24000/1001) FPS
  25. Color space                              : YUV
  26. Chroma subsampling                       : 4:2:0
  27. Bit depth                                : 10 bits
  28. Bits/(Pixel*Frame)                       : 0.099
  29. Stream size                              : 10.9 GiB (93%)
  30. Title                                    : [www.MoviezAddiction.art]
  31. Default                                  : Yes
  32. Forced                                   : No
  33. Color range                              : Limited
  34. Color primaries                          : BT.2020
  35. Transfer characteristics                 : PQ
  36. Matrix coefficients                      : BT.2020 non-constant
  37. Mastering display color primaries        : Display P3
  38. Mastering display luminance              : min: 0.0001 cd/m2, max: 1000 cd/m2
  39. Maximum Content Light Level              : 622 cd/m2
  40. Maximum Frame-Average Light Level        : 242 cd/m2
  41.  
  42. Audio #1
  43. ID                                       : 2
  44. Format                                   : E-AC-3
  45. Format/Info                              : Enhanced AC-3
  46. Commercial name                          : Dolby Digital Plus
  47. Codec ID                                 : A_EAC3
  48. Duration                                 : 1 h 47 min
  49. Bit rate mode                            : Constant
  50. Bit rate                                 : 448 kb/s
  51. Channel(s)                               : 6 channels
  52. Channel layout                           : L R C LFE Ls Rs
  53. Sampling rate                            : 48.0 kHz
  54. Frame rate                               : 31.250 FPS (1536 SPF)
  55. Compression mode                         : Lossy
  56. Delay relative to video                  : -13 ms
  57. Stream size                              : 344 MiB (3%)
  58. Title                                    : [www.MoviezAddiction.art] - Hindi
  59. Language                                 : Hindi
  60. Service kind                             : Complete Main
  61. Default                                  : Yes
  62. Forced                                   : No
  63.  
  64. Audio #2
  65. ID                                       : 3
  66. Format                                   : E-AC-3
  67. Format/Info                              : Enhanced AC-3
  68. Commercial name                          : Dolby Digital Plus
  69. Codec ID                                 : A_EAC3
  70. Duration                                 : 1 h 47 min
  71. Bit rate mode                            : Constant
  72. Bit rate                                 : 640 kb/s
  73. Channel(s)                               : 6 channels
  74. Channel layout                           : L R C LFE Ls Rs
  75. Sampling rate                            : 48.0 kHz
  76. Frame rate                               : 31.250 FPS (1536 SPF)
  77. Compression mode                         : Lossy
  78. Stream size                              : 492 MiB (4%)
  79. Title                                    : [www.MoviezAddiction.art] - English
  80. Language                                 : English
  81. Service kind                             : Complete Main
  82. Default                                  : No
  83. Forced                                   : No
  84.  
  85. Text #1
  86. ID                                       : 4
  87. Format                                   : UTF-8
  88. Codec ID                                 : S_TEXT/UTF8
  89. Codec ID/Info                            : UTF-8 Plain Text
  90. Duration                                 : 1 h 46 min
  91. Bit rate                                 : 41 b/s
  92. Count of elements                        : 1439
  93. Stream size                              : 32.0 KiB (0%)
  94. Title                                    : [www.MoviezAddiction.art] - English [SRT]
  95. Language                                 : English
  96. Default                                  : Yes
  97. Forced                                   : No
  98.  
  99. Text #2
  100. ID                                       : 5
  101. Format                                   : UTF-8
  102. Codec ID                                 : S_TEXT/UTF8
  103. Codec ID/Info                            : UTF-8 Plain Text
  104. Duration                                 : 1 h 46 min
  105. Bit rate                                 : 45 b/s
  106. Count of elements                        : 1473
  107. Stream size                              : 35.8 KiB (0%)
  108. Title                                    : [www.MoviezAddiction.art] - English [SDH] [SRT]
  109. Language                                 : English
  110. Default                                  : No
  111. Forced                                   : No