The text below is selected, press Ctrl+C to copy to your clipboard. (⌘+C on Mac) No line numbers will be copied.
Alexander (2004) TC 1080p BluRay...

8th November 2022 01:43:30 AM | Views: 58
  1. Format                                   : Matroska
  2. Format version                           : Version 4
  3. File size                                : 32.2 GiB
  4. Duration                                 : 2 h 55 min
  5. Overall bit rate mode                    : Variable
  6. Overall bit rate                         : 26.3 Mb/s
  7. Movie name                               : Alexander (2004) TC 1080p BluRay REMUX x264 Dual Audio [Hindi VCD DD2.0 + English DTS-HD HR 5.1] ESub 32.1GB [MoviezAddiction.life]
  8. Encoded date                             : UTC 2022-11-07 09:19:04
  9. Writing application                      : mkvmerge v71.1.0 ('Fortitude') 64-bit
  10. Writing library                          : libebml v1.4.4 + libmatroska v1.7.1
  11.  
  12. Video
  13. ID                                       : 1
  14. Format                                   : AVC
  15. Format/Info                              : Advanced Video Codec
  16. Format profile                           : [email protected]
  17. Format settings                          : CABAC / 4 Ref Frames
  18. Format settings, CABAC                   : Yes
  19. Format settings, Reference frames        : 4 frames
  20. Codec ID                                 : V_MPEG4/ISO/AVC
  21. Duration                                 : 2 h 55 min
  22. Bit rate mode                            : Variable
  23. Bit rate                                 : 24.0 Mb/s
  24. Maximum bit rate                         : 39.0 Mb/s
  25. Width                                    : 1 920 pixels
  26. Height                                   : 1 080 pixels
  27. Display aspect ratio                     : 16:9
  28. Frame rate mode                          : Constant
  29. Frame rate                               : 23.976 (24000/1001) FPS
  30. Standard                                 : NTSC
  31. Color space                              : YUV
  32. Chroma subsampling                       : 4:2:0
  33. Bit depth                                : 8 bits
  34. Scan type                                : Progressive
  35. Bits/(Pixel*Frame)                       : 0.483
  36. Stream size                              : 29.4 GiB (91%)
  37. Default                                  : Yes
  38. Forced                                   : No
  39. Color range                              : Limited
  40. Color primaries                          : BT.709
  41. Transfer characteristics                 : BT.709
  42. Matrix coefficients                      : BT.709
  43.  
  44. Audio #1
  45. ID                                       : 2
  46. Format                                   : AC-3
  47. Format/Info                              : Audio Coding 3
  48. Commercial name                          : Dolby Digital
  49. Format settings                          : Dolby Surround
  50. Codec ID                                 : A_AC3
  51. Duration                                 : 2 h 55 min
  52. Bit rate mode                            : Constant
  53. Bit rate                                 : 192 kb/s
  54. Channel(s)                               : 2 channels
  55. Channel layout                           : L R
  56. Sampling rate                            : 48.0 kHz
  57. Frame rate                               : 31.250 FPS (1536 SPF)
  58. Compression mode                         : Lossy
  59. Stream size                              : 241 MiB (1%)
  60. Title                                    : Hindi
  61. Language                                 : Hindi
  62. Service kind                             : Complete Main
  63. Default                                  : Yes
  64. Forced                                   : No
  65.  
  66. Audio #2
  67. ID                                       : 3
  68. Format                                   : DTS XBR
  69. Format/Info                              : Digital Theater Systems
  70. Commercial name                          : DTS-HD High Resolution Audio
  71. Codec ID                                 : A_DTS
  72. Duration                                 : 2 h 55 min
  73. Bit rate mode                            : Constant
  74. Bit rate                                 : 2 046 kb/s
  75. Channel(s)                               : 6 channels
  76. Channel layout                           : C L R Ls Rs LFE
  77. Sampling rate                            : 48.0 kHz
  78. Frame rate                               : 93.750 FPS (512 SPF)
  79. Bit depth                                : 16 bits
  80. Compression mode                         : Lossy
  81. Stream size                              : 2.51 GiB (8%)
  82. Title                                    : English
  83. Language                                 : English
  84. Default                                  : No
  85. Forced                                   : No
  86.  
  87. Text
  88. ID                                       : 4
  89. Format                                   : PGS
  90. Codec ID                                 : S_HDMV/PGS
  91. Codec ID/Info                            : Picture based subtitle format used on BDs/HD-DVDs
  92. Duration                                 : 2 h 44 min
  93. Bit rate                                 : 48.6 kb/s
  94. Frame rate                               : 0.345 FPS
  95. Count of elements                        : 3406
  96. Stream size                              : 57.2 MiB (0%)
  97. Title                                    : English [PGS]
  98. Language                                 : English
  99. Default                                  : Yes
  100. Forced                                   : No
  101.  
  102. Menu
  103. 00:00:00.000                             : en:Chapter 01
  104. 00:12:13.983                             : en:Chapter 02
  105. 00:22:10.329                             : en:Chapter 03
  106. 00:30:27.200                             : en:Chapter 04
  107. 00:44:54.233                             : en:Chapter 05
  108. 01:09:56.567                             : en:Chapter 06
  109. 01:23:46.146                             : en:Chapter 07
  110. 01:37:48.696                             : en:Chapter 08
  111. 01:58:41.239                             : en:Chapter 09
  112. 02:18:00.397                             : en:Chapter 10
  113. 02:32:12.999                             : en:Chapter 11
  114. 02:44:12.801                             : en:Chapter 12