>
The text below is selected, press Ctrl+C to copy to your clipboard. (⌘+C on Mac) No line numbers will be copied.
MediaInfo

11th February 2019 03:43:12 AM | Views: 12
  1. Format                      : Matroska
  2. Format version              : Version 4 / Version 2
  3. File size                   : 951 MiB
  4. Duration                    : 1 h 37 min
  5. Overall bit rate            : 1 366 kb/s
  6. Movie name                  : When.a.Stranger.Calls.1979.REMASTERED.720p.BRRip.x264.MkvCage.ws
  7. Encoded date                : UTC 2019-02-11 03:33:57
  8. Writing application         : mkvmerge v30.1.0 ('Forever And More') 64-bit
  9. Writing library             : libebml v1.3.6 + libmatroska v1.4.9
  10.  
  11. Video
  12. ID                          : 1
  13. Format                      : AVC
  14. Format/Info                 : Advanced Video Codec
  15. Format profile              : [email protected]
  16. Format settings             : CABAC / 8 Ref Frames
  17. Format settings, CABAC      : Yes
  18. Format settings, ReFrames   : 8 frames
  19. Codec ID                    : V_MPEG4/ISO/AVC
  20. Duration                    : 1 h 37 min
  21. Bit rate                    : 1 265 kb/s
  22. Width                       : 1 280 pixels
  23. Height                      : 688 pixels
  24. Display aspect ratio        : 1.85:1
  25. Frame rate mode             : Constant
  26. Frame rate                  : 23.976 (24000/1001) FPS
  27. Color space                 : YUV
  28. Chroma subsampling          : 4:2:0
  29. Bit depth                   : 8 bits
  30. Scan type                   : Progressive
  31. Bits/(Pixel*Frame)          : 0.060
  32. Stream size                 : 880 MiB (93%)
  33. Writing library             : x264 core 157 r2935 545de2f
  34. Encoding settings           : cabac=1 / ref=8 / deblock=1:-1:-1 / analyse=0x3:0x133 / me=umh / subme=10 / psy=1 / psy_rd=1.00:0.10 / mixed_ref=1 / me_range=24 / chroma_me=1 / trellis=2 / 8x8dct=1 / cqm=0 / deadzone=21,11 / fast_pskip=1 / chroma_qp_offset=-3 / threads=21 / lookahead_threads=2 / sliced_threads=0 / nr=0 / decimate=1 / interlaced=0 / bluray_compat=0 / constrained_intra=0 / bframes=6 / b_pyramid=2 / b_adapt=2 / b_bias=0 / direct=3 / weightb=1 / open_gop=0 / weightp=2 / keyint=250 / keyint_min=23 / scenecut=40 / intra_refresh=0 / rc_lookahead=60 / rc=2pass / mbtree=1 / bitrate=1265 / ratetol=1.0 / qcomp=0.60 / qpmin=0 / qpmax=69 / qpstep=4 / cplxblur=20.0 / qblur=0.5 / ip_ratio=1.40 / aq=1:1.00
  35. Default                     : Yes
  36. Forced                      : No
  37.  
  38. Audio
  39. ID                          : 2
  40. Format                      : AAC
  41. Format/Info                 : Advanced Audio Codec
  42. Format profile              : HE-AAC / LC
  43. Format settings             : Explicit
  44. Codec ID                    : A_AAC-2
  45. Duration                    : 1 h 37 min
  46. Bit rate                    : 100.0 kb/s
  47. Channel(s)                  : 2 channels
  48. Channel positions           : Front: L R
  49. Sampling rate               : 48.0 kHz / 24.0 kHz
  50. Frame rate                  : 23.438 FPS (1024 SPF)
  51. Compression mode            : Lossy
  52. Delay relative to video     : 43 ms
  53. Stream size                 : 69.6 MiB (7%)
  54. Language                    : English
  55. Default                     : Yes
  56. Forced                      : No
  57.  
  58. Text #1
  59. ID                          : 3
  60. Format                      : UTF-8
  61. Codec ID                    : S_TEXT/UTF8
  62. Codec ID/Info               : UTF-8 Plain Text
  63. Duration                    : 1 h 33 min
  64. Bit rate                    : 32 b/s
  65. Count of elements           : 770
  66. Stream size                 : 22.1 KiB (0%)
  67. Language                    : English
  68. Default                     : Yes
  69. Forced                      : No
  70.  
  71. Text #2
  72. ID                          : 4
  73. Format                      : UTF-8
  74. Codec ID                    : S_TEXT/UTF8
  75. Codec ID/Info               : UTF-8 Plain Text
  76. Duration                    : 1 h 34 min
  77. Bit rate                    : 35 b/s
  78. Count of elements           : 947
  79. Stream size                 : 24.8 KiB (0%)
  80. Title                       : SDH
  81. Language                    : English
  82. Default                     : No
  83. Forced                      : No
  84.  
  85. Menu
  86. 00:00:00.000                : en:Chapter 01
  87. 00:07:56.726                : en:Chapter 02
  88. 00:12:09.395                : en:Chapter 03
  89. 00:17:06.108                : en:Chapter 04
  90. 00:22:58.544                : en:Chapter 05
  91. 00:29:38.276                : en:Chapter 06
  92. 00:37:01.845                : en:Chapter 07
  93. 00:45:03.117                : en:Chapter 08
  94. 00:54:10.164                : en:Chapter 09
  95. 00:57:27.861                : en:Chapter 10
  96. 01:04:12.307                : en:Chapter 11
  97. 01:07:51.609                : en:Chapter 12
  98. 01:16:47.228                : en:Chapter 13
  99. 01:24:04.456                : en:Chapter 14
  100. 01:31:32.862                : en:Chapter 15
  101. 01:35:15.877                : en:Chapter 16