The text below is selected, press Ctrl+C to copy to your clipboard. (⌘+C on Mac) No line numbers will be copied.
MediaInfo

11th March 2019 03:11:14 AM | Views: 148
  1. Format                      : Matroska
  2. Format version              : Version 4 / Version 2
  3. File size                   : 750 MiB
  4. Duration                    : 1 h 29 min
  5. Overall bit rate            : 1 166 kb/s
  6. Movie name                  : EVO
  7. Encoded date                : UTC 2019-03-11 03:07:29
  8. Writing application         : mkvmerge v28.2.0 ('The Awakening') 64-bit
  9. Writing library             : libebml v1.3.6 + libmatroska v1.4.9
  10.  
  11. Video
  12. ID                          : 1
  13. Format                      : AVC
  14. Format/Info                 : Advanced Video Codec
  15. Format profile              : [email protected]
  16. Format settings             : CABAC / 5 Ref Frames
  17. Format settings, CABAC      : Yes
  18. Format settings, ReFrames   : 5 frames
  19. Codec ID                    : V_MPEG4/ISO/AVC
  20. Duration                    : 1 h 29 min
  21. Bit rate                    : 1 101 kb/s
  22. Width                       : 1 280 pixels
  23. Height                      : 530 pixels
  24. Display aspect ratio        : 2.40:1
  25. Frame rate mode             : Constant
  26. Frame rate                  : 23.976 (24000/1001) FPS
  27. Color space                 : YUV
  28. Chroma subsampling          : 4:2:0
  29. Bit depth                   : 8 bits
  30. Scan type                   : Progressive
  31. Bits/(Pixel*Frame)          : 0.068
  32. Stream size                 : 707 MiB (94%)
  33. Writing library             : x264 core 157 r2935 545de2f
  34. Encoding settings           : cabac=1 / ref=5 / deblock=1:-1:-1 / analyse=0x3:0x133 / me=umh / subme=9 / psy=1 / psy_rd=1.00:0.10 / mixed_ref=1 / me_range=24 / chroma_me=1 / trellis=2 / 8x8dct=1 / cqm=0 / deadzone=21,11 / fast_pskip=1 / chroma_qp_offset=-3 / threads=17 / lookahead_threads=1 / sliced_threads=0 / nr=0 / decimate=1 / interlaced=0 / bluray_compat=0 / constrained_intra=0 / bframes=3 / b_pyramid=2 / b_adapt=2 / b_bias=0 / direct=3 / weightb=1 / open_gop=0 / weightp=2 / keyint=250 / keyint_min=23 / scenecut=40 / intra_refresh=0 / rc_lookahead=60 / rc=2pass / mbtree=1 / bitrate=1101 / ratetol=1.0 / qcomp=0.60 / qpmin=0 / qpmax=69 / qpstep=4 / cplxblur=20.0 / qblur=0.5 / ip_ratio=1.40 / aq=1:1.00
  35. Default                     : Yes
  36. Forced                      : No
  37.  
  38. Audio
  39. ID                          : 2
  40. Format                      : AAC
  41. Format/Info                 : Advanced Audio Codec
  42. Format profile              : HE-AAC / LC
  43. Format settings             : Explicit
  44. Codec ID                    : A_AAC-2
  45. Duration                    : 1 h 29 min
  46. Bit rate                    : 64.0 kb/s
  47. Channel(s)                  : 2 channels
  48. Channel positions           : Front: L R
  49. Sampling rate               : 48.0 kHz / 24.0 kHz
  50. Frame rate                  : 23.438 FPS (1024 SPF)
  51. Compression mode            : Lossy
  52. Delay relative to video     : 43 ms
  53. Stream size                 : 41.1 MiB (5%)
  54. Language                    : English
  55. Default                     : Yes
  56. Forced                      : No
  57.  
  58. Menu
  59. 00:00:00.000                : en:1
  60. 00:03:18.281                : en:2
  61. 00:08:34.847                : en:3
  62. 00:15:46.319                : en:4
  63. 00:19:51.646                : en:5
  64. 00:24:58.703                : en:6
  65. 00:33:05.188                : en:7
  66. 00:38:10.284                : en:8
  67. 00:42:54.401                : en:9
  68. 00:51:07.393                : en:10
  69. 00:58:24.621                : en:11
  70. 01:01:13.872                : en:12
  71. 01:07:43.594                : en:13
  72. 01:11:26.941                : en:14
  73. 01:17:59.291                : en:15
  74. 01:21:32.796                : en:16