The text below is selected, press Ctrl+C to copy to your clipboard. (⌘+C on Mac) No line numbers will be copied.
The Shaukeens (2014) 1080p

3rd January 2022 08:25:06 AM | Views: 24
  1. Format                                   : Matroska
  2. Format version                           : Version 4
  3. File size                                : 2.13 GiB
  4. Duration                                 : 2 h 2 min
  5. Overall bit rate                         : 2 492 kb/s
  6. Movie name                               : The Shaukeens (2014) 1080p WEB-DL x264 Hindi DD2.0 ESub 2.13GB [www.MoviezAddiction.art]
  7. Encoded date                             : UTC 2022-01-03 07:17:44
  8. Writing application                      : mkvmerge v47.0.0 ('Black Flag') 64-bit
  9. Writing library                          : libebml v1.3.10 + libmatroska v1.5.2
  10.  
  11. Video
  12. ID                                       : 1
  13. Format                                   : AVC
  14. Format/Info                              : Advanced Video Codec
  15. Format profile                           : [email protected]
  16. Format settings                          : CABAC / 5 Ref Frames
  17. Format settings, CABAC                   : Yes
  18. Format settings, Reference frames        : 5 frames
  19. Codec ID                                 : V_MPEG4/ISO/AVC
  20. Duration                                 : 2 h 2 min
  21. Bit rate                                 : 2 300 kb/s
  22. Width                                    : 1 920 pixels
  23. Height                                   : 818 pixels
  24. Display aspect ratio                     : 2.35:1
  25. Frame rate mode                          : Constant
  26. Frame rate                               : 25.000 FPS
  27. Color space                              : YUV
  28. Chroma subsampling                       : 4:2:0
  29. Bit depth                                : 8 bits
  30. Scan type                                : Progressive
  31. Bits/(Pixel*Frame)                       : 0.059
  32. Stream size                              : 1.97 GiB (92%)
  33. Title                                    : [www.MoviezAddiction.art]
  34. Default                                  : Yes
  35. Forced                                   : No
  36.  
  37. Audio
  38. ID                                       : 2
  39. Format                                   : AAC LC
  40. Format/Info                              : Advanced Audio Codec Low Complexity
  41. Codec ID                                 : A_AAC-2
  42. Duration                                 : 2 h 2 min
  43. Bit rate                                 : 192 kb/s
  44. Channel(s)                               : 2 channels
  45. Channel layout                           : L R
  46. Sampling rate                            : 48.0 kHz
  47. Frame rate                               : 46.875 FPS (1024 SPF)
  48. Compression mode                         : Lossy
  49. Delay relative to video                  : -33 ms
  50. Stream size                              : 166 MiB (8%)
  51. Title                                    : [www.MoviezAddiction.art] - Hindi
  52. Language                                 : Hindi
  53. Default                                  : Yes
  54. Forced                                   : No
  55.  
  56. Text
  57. ID                                       : 3
  58. Format                                   : S_TEXT/WEBVTT
  59. Codec ID                                 : S_TEXT/WEBVTT
  60. Duration                                 : 2 h 0 min
  61. Bit rate                                 : 132 b/s
  62. Count of elements                        : 2388
  63. Stream size                              : 117 KiB (0%)
  64. Title                                    : [www.MoviezAddiction.art] - English [WebVTT]
  65. Language                                 : English
  66. Default                                  : Yes
  67. Forced                                   : No