The text below is selected, press Ctrl+C to copy to your clipboard. (⌘+C on Mac) No line numbers will be copied.
Top Gun Maverick (2022) IMAX...

13th January 2023 03:34:53 AM | Views: 23
  1. Format                                   : Matroska
  2. Format version                           : Version 4
  3. File size                                : 8.08 GiB
  4. Duration                                 : 2 h 12 min
  5. Overall bit rate mode                    : Variable
  6. Overall bit rate                         : 8 721 kb/s
  7. Movie name                               : Top Gun Maverick (2022) IMAX 1080p BluRay x264 Dual Audio [Hindi DDP5.1 + English DTS-HD MA 7.1] ESub 8.07GB [MoviezAddiction]
  8. Encoded date                             : UTC 2023-01-13 01:10:06
  9. Writing application                      : mkvmerge v72.0.0 ('Minuano (Six-eight)') 64-bit
  10. Writing library                          : libebml v1.4.4 + libmatroska v1.7.1
  11.  
  12. Video
  13. ID                                       : 1
  14. Format                                   : AVC
  15. Format/Info                              : Advanced Video Codec
  16. Format profile                           : [email protected]
  17. Format settings                          : CABAC / 4 Ref Frames
  18. Format settings, CABAC                   : Yes
  19. Format settings, Reference frames        : 4 frames
  20. Codec ID                                 : V_MPEG4/ISO/AVC
  21. Duration                                 : 2 h 10 min
  22. Bit rate                                 : 4 000 kb/s
  23. Width                                    : 1 920 pixels
  24. Height                                   : 1 012 pixels
  25. Display aspect ratio                     : 1.897
  26. Frame rate mode                          : Variable
  27. Frame rate                               : 23.976 (24000/1001) FPS
  28. Color space                              : YUV
  29. Chroma subsampling                       : 4:2:0
  30. Bit depth                                : 8 bits
  31. Scan type                                : Progressive
  32. Bits/(Pixel*Frame)                       : 0.086
  33. Stream size                              : 3.64 GiB (45%)
  34. Default                                  : Yes
  35. Forced                                   : No
  36.  
  37. Audio #1
  38. ID                                       : 2
  39. Format                                   : E-AC-3
  40. Format/Info                              : Enhanced AC-3
  41. Commercial name                          : Dolby Digital Plus
  42. Codec ID                                 : A_EAC3
  43. Duration                                 : 2 h 12 min
  44. Bit rate mode                            : Constant
  45. Bit rate                                 : 640 kb/s
  46. Channel(s)                               : 6 channels
  47. Channel layout                           : L R C LFE Ls Rs
  48. Sampling rate                            : 48.0 kHz
  49. Frame rate                               : 31.250 FPS (1536 SPF)
  50. Compression mode                         : Lossy
  51. Stream size                              : 607 MiB (7%)
  52. Title                                    : Hindi
  53. Language                                 : Hindi
  54. Service kind                             : Complete Main
  55. Default                                  : Yes
  56. Forced                                   : No
  57.  
  58. Audio #2
  59. ID                                       : 3
  60. Format                                   : DTS XLL
  61. Format/Info                              : Digital Theater Systems
  62. Commercial name                          : DTS-HD Master Audio
  63. Codec ID                                 : A_DTS
  64. Duration                                 : 2 h 10 min
  65. Bit rate mode                            : Variable
  66. Bit rate                                 : 4 193 kb/s
  67. Channel(s)                               : 8 channels
  68. Channel layout                           : C L R LFE Lb Rb Lss Rss
  69. Sampling rate                            : 48.0 kHz
  70. Frame rate                               : 93.750 FPS (512 SPF)
  71. Bit depth                                : 24 bits
  72. Compression mode                         : Lossless
  73. Stream size                              : 3.81 GiB (47%)
  74. Title                                    : English
  75. Language                                 : English
  76. Default                                  : No
  77. Forced                                   : No
  78.  
  79. Text
  80. ID                                       : 4
  81. Format                                   : PGS
  82. Codec ID                                 : S_HDMV/PGS
  83. Codec ID/Info                            : Picture based subtitle format used on BDs/HD-DVDs
  84. Duration                                 : 1 h 57 min
  85. Bit rate                                 : 36.9 kb/s
  86. Frame rate                               : 0.413 FPS
  87. Count of elements                        : 2906
  88. Stream size                              : 31.0 MiB (0%)
  89. Title                                    : English [PGS]
  90. Language                                 : English
  91. Default                                  : Yes
  92. Forced                                   : No
  93.  
  94. Menu
  95. 00:00:00.000                             : en:Chapter 01
  96. 00:03:05.226                             : en:Chapter 02
  97. 00:13:40.110                             : en:Chapter 03
  98. 00:21:22.948                             : en:Chapter 04
  99. 00:32:39.415                             : en:Chapter 05
  100. 00:44:47.518                             : en:Chapter 06
  101. 00:53:54.940                             : en:Chapter 07
  102. 01:00:09.606                             : en:Chapter 08
  103. 01:07:39.305                             : en:Chapter 09
  104. 01:15:46.166                             : en:Chapter 10
  105. 01:23:37.721                             : en:Chapter 11
  106. 01:31:49.128                             : en:Chapter 12
  107. 01:41:32.628                             : en:Chapter 13
  108. 01:48:48.063                             : en:Chapter 14
  109. 01:57:22.410                             : en:Chapter 15
  110. 02:03:13.135                             : en:Chapter 16