The text below is selected, press Ctrl+C to copy to your clipboard. (⌘+C on Mac) No line numbers will be copied.
Logan Lucky (2017) 1080p Bluray...

14th September 2020 06:47:27 AM | Views: 25
  1. Format                                   : Matroska
  2. Format version                           : Version 4
  3. File size                                : 4.91 GiB
  4. Duration                                 : 1 h 59 min
  5. Overall bit rate                         : 5 903 kb/s
  6. Movie name                               : Logan Lucky (2017) 1080p Bluray x264 Dual Audio [ Hindi HDTV2.0 + English DTS5.1 ] ESub [www.MoviezAddiction.space]
  7. Encoded date                             : UTC 2020-09-14 03:56:44
  8. Writing application                      : mkvmerge v48.0.0 ('Fortress Around Your Heart') 64-bit
  9. Writing library                          : libebml v1.4.0 + libmatroska v1.6.0
  10.  
  11. Video
  12. ID                                       : 1
  13. Format                                   : AVC
  14. Format/Info                              : Advanced Video Codec
  15. Format profile                           : [email protected]
  16. Format settings                          : CABAC / 5 Ref Frames
  17. Format settings, CABAC                   : Yes
  18. Format settings, Reference frames        : 5 frames
  19. Codec ID                                 : V_MPEG4/ISO/AVC
  20. Duration                                 : 1 h 59 min
  21. Bit rate                                 : 4 000 kb/s
  22. Width                                    : 1 920 pixels
  23. Height                                   : 800 pixels
  24. Display aspect ratio                     : 2.40:1
  25. Frame rate mode                          : Constant
  26. Frame rate                               : 23.976 (24000/1001) FPS
  27. Color space                              : YUV
  28. Chroma subsampling                       : 4:2:0
  29. Bit depth                                : 8 bits
  30. Scan type                                : Progressive
  31. Bits/(Pixel*Frame)                       : 0.109
  32. Stream size                              : 3.33 GiB (68%)
  33. Title                                    : [www.MoviezAddiction.space]
  34. Writing library                          : x264 core 160 r3000 33f9e14
  35. Encoding settings                        : cabac=1 / ref=5 / deblock=1:0:0 / analyse=0x3:0x113 / me=hex / subme=8 / psy=1 / psy_rd=1.00:0.00 / mixed_ref=1 / me_range=16 / chroma_me=1 / trellis=2 / 8x8dct=1 / cqm=0 / deadzone=21,11 / fast_pskip=1 / chroma_qp_offset=-2 / threads=12 / lookahead_threads=2 / sliced_threads=0 / nr=0 / decimate=1 / interlaced=0 / bluray_compat=0 / constrained_intra=0 / bframes=3 / b_pyramid=2 / b_adapt=1 / b_bias=0 / direct=3 / weightb=1 / open_gop=0 / weightp=2 / keyint=250 / keyint_min=23 / scenecut=40 / intra_refresh=0 / rc_lookahead=50 / rc=2pass / mbtree=1 / bitrate=4000 / ratetol=1.0 / qcomp=0.60 / qpmin=0 / qpmax=69 / qpstep=4 / cplxblur=20.0 / qblur=0.5 / ip_ratio=1.40 / aq=1:1.00
  36. Default                                  : Yes
  37. Forced                                   : No
  38.  
  39. Audio #1
  40. ID                                       : 2
  41. Format                                   : DTS
  42. Format/Info                              : Digital Theater Systems
  43. Codec ID                                 : A_DTS
  44. Duration                                 : 1 h 59 min
  45. Bit rate mode                            : Constant
  46. Bit rate                                 : 1 509 kb/s
  47. Channel(s)                               : 6 channels
  48. Channel layout                           : C L R Ls Rs LFE
  49. Sampling rate                            : 48.0 kHz
  50. Frame rate                               : 93.750 FPS (512 SPF)
  51. Bit depth                                : 24 bits
  52. Compression mode                         : Lossy
  53. Stream size                              : 1.25 GiB (26%)
  54. Title                                    : [www.MoviezAddiction.space]
  55. Language                                 : English
  56. Default                                  : No
  57. Forced                                   : No
  58.  
  59. Audio #2
  60. ID                                       : 4
  61. Format                                   : AC-3
  62. Format/Info                              : Audio Coding 3
  63. Commercial name                          : Dolby Digital
  64. Codec ID                                 : A_AC3
  65. Duration                                 : 1 h 59 min
  66. Bit rate mode                            : Constant
  67. Bit rate                                 : 384 kb/s
  68. Channel(s)                               : 2 channels
  69. Channel layout                           : L R
  70. Sampling rate                            : 48.0 kHz
  71. Frame rate                               : 31.250 FPS (1536 SPF)
  72. Compression mode                         : Lossy
  73. Stream size                              : 327 MiB (7%)
  74. Title                                    : [www.MoviezAddiction.space]
  75. Language                                 : Hindi
  76. Service kind                             : Complete Main
  77. Default                                  : Yes
  78. Forced                                   : Yes
  79.  
  80. Text
  81. ID                                       : 3
  82. Format                                   : VobSub
  83. Muxing mode                              : zlib
  84. Codec ID                                 : S_VOBSUB
  85. Codec ID/Info                            : Picture based subtitle format used on DVDs
  86. Duration                                 : 1 h 57 min
  87. Bit rate                                 : 12.9 kb/s
  88. Count of elements                        : 1752
  89. Stream size                              : 10.9 MiB (0%)
  90. Title                                    : [www.MoviezAddiction.space]
  91. Language                                 : English
  92. Default                                  : Yes
  93. Forced                                   : Yes