The text below is selected, press Ctrl+C to copy to your clipboard. (⌘+C on Mac) No line numbers will be copied.
Halloween Kills (2021) EXTENDED 2160p...

15th January 2022 05:18:01 AM | Views: 4
  1. Format                                   : Matroska
  2. Format version                           : Version 4
  3. File size                                : 17.9 GiB
  4. Duration                                 : 1 h 49 min
  5. Overall bit rate mode                    : Variable
  6. Overall bit rate                         : 23.5 Mb/s
  7. Movie name                               : Halloween Kills (2021) EXTENDED 2160p UHD BluRay x265 10bit HDR HEVC English DTS-HD MA 7.1 MSubs 17.9GB [www.MoviezAddiction.art]
  8. Encoded date                             : UTC 2022-01-14 11:27:48
  9. Writing application                      : mkvmerge v47.0.0 ('Black Flag') 64-bit
  10. Writing library                          : libebml v1.3.10 + libmatroska v1.5.2
  11.  
  12. Video
  13. ID                                       : 1
  14. Format                                   : HEVC
  15. Format/Info                              : High Efficiency Video Coding
  16. Format profile                           : Main [email protected]@High
  17. HDR format                               : SMPTE ST 2086, HDR10 compatible
  18. Codec ID                                 : V_MPEGH/ISO/HEVC
  19. Duration                                 : 1 h 49 min
  20. Bit rate                                 : 19.7 Mb/s
  21. Width                                    : 3 840 pixels
  22. Height                                   : 1 608 pixels
  23. Display aspect ratio                     : 2.40:1
  24. Frame rate mode                          : Constant
  25. Frame rate                               : 23.976 (24000/1001) FPS
  26. Color space                              : YUV
  27. Chroma subsampling                       : 4:2:0 (Type 2)
  28. Bit depth                                : 10 bits
  29. Bits/(Pixel*Frame)                       : 0.133
  30. Stream size                              : 15.0 GiB (84%)
  31. Title                                    : [www.MoviezAddiction.art]
  32. Default                                  : Yes
  33. Forced                                   : No
  34. Color range                              : Limited
  35. Color primaries                          : BT.2020
  36. Transfer characteristics                 : PQ
  37. Matrix coefficients                      : BT.2020 non-constant
  38. Mastering display color primaries        : Display P3
  39. Mastering display luminance              : min: 0.0010 cd/m2, max: 1000 cd/m2
  40. Maximum Content Light Level              : 784 cd/m2
  41. Maximum Frame-Average Light Level        : 27 cd/m2
  42.  
  43. Audio
  44. ID                                       : 2
  45. Format                                   : DTS XLL
  46. Format/Info                              : Digital Theater Systems
  47. Commercial name                          : DTS-HD Master Audio
  48. Codec ID                                 : A_DTS
  49. Duration                                 : 1 h 49 min
  50. Bit rate mode                            : Variable
  51. Bit rate                                 : 3 728 kb/s
  52. Channel(s)                               : 8 channels
  53. Channel layout                           : C L R LFE Lb Rb Lss Rss
  54. Sampling rate                            : 48.0 kHz
  55. Frame rate                               : 93.750 FPS (512 SPF)
  56. Bit depth                                : 24 bits
  57. Compression mode                         : Lossless
  58. Stream size                              : 2.84 GiB (16%)
  59. Title                                    : [www.MoviezAddiction.art] - English
  60. Language                                 : English
  61. Default                                  : Yes
  62. Forced                                   : No
  63.  
  64. Text #1
  65. ID                                       : 3
  66. Format                                   : PGS
  67. Codec ID                                 : S_HDMV/PGS
  68. Codec ID/Info                            : Picture based subtitle format used on BDs/HD-DVDs
  69. Duration                                 : 1 h 45 min
  70. Bit rate                                 : 40.0 kb/s
  71. Count of elements                        : 2980
  72. Stream size                              : 30.1 MiB (0%)
  73. Title                                    : [www.MoviezAddiction.art] - English [PGS]
  74. Language                                 : English
  75. Default                                  : Yes
  76. Forced                                   : No
  77.  
  78. Text #2
  79. ID                                       : 4
  80. Format                                   : PGS
  81. Codec ID                                 : S_HDMV/PGS
  82. Codec ID/Info                            : Picture based subtitle format used on BDs/HD-DVDs
  83. Duration                                 : 1 h 44 min
  84. Bit rate                                 : 77.7 kb/s
  85. Count of elements                        : 3990
  86. Stream size                              : 57.9 MiB (0%)
  87. Title                                    : [www.MoviezAddiction.art] - English [SDH] [PGS]
  88. Language                                 : English
  89. Default                                  : No
  90. Forced                                   : No
  91.  
  92. Menu
  93. 00:00:00.000                             : Chapter 01
  94. 00:08:17.788                             : Chapter 02
  95. 00:15:10.659                             : Chapter 03
  96. 00:19:55.110                             : Chapter 04
  97. 00:26:17.576                             : Chapter 05
  98. 00:32:31.950                             : Chapter 06
  99. 00:38:01.612                             : Chapter 07
  100. 00:42:30.214                             : Chapter 08
  101. 00:46:52.935                             : Chapter 09
  102. 00:49:09.112                             : Chapter 10
  103. 00:55:07.721                             : Chapter 11
  104. 01:01:32.980                             : Chapter 12
  105. 01:06:04.585                             : Chapter 13
  106. 01:11:29.493                             : Chapter 14
  107. 01:16:19.408                             : Chapter 15
  108. 01:22:15.722                             : Chapter 16
  109. 01:26:25.805                             : Chapter 17
  110. 01:30:06.609                             : Chapter 18
  111. 01:35:24.593                             : Chapter 19
  112. 01:44:07.658                             : Chapter 20