The text below is selected, press Ctrl+C to copy to your clipboard. (⌘+C on Mac) No line numbers will be copied.
MediaInfo

23rd August 2019 02:30:20 PM | Views: 1681
  1. Format                                   : Matroska
  2. Format version                           : Version 4
  3. File size                                : 2.40 GiB
  4. Duration                                 : 2 h 10 min
  5. Overall bit rate                         : 2 632 kb/s
  6. Movie name                               : John.Wick.Chapter.3.Parabellum.2019.1080p.AMZN.WEB-DL.x264.6CH-MkvCage.com
  7. Encoded date                             : UTC 2019-08-23 14:23:20
  8. Writing application                      : mkvmerge v35.0.0 ('All The Love In The World') 64-bit
  9. Writing library                          : libebml v1.3.9 + libmatroska v1.5.2
  10.  
  11. Video
  12. ID                                       : 1
  13. Format                                   : AVC
  14. Format/Info                              : Advanced Video Codec
  15. Format profile                           : [email protected]
  16. Format settings                          : CABAC / 5 Ref Frames
  17. Format settings, CABAC                   : Yes
  18. Format settings, Reference frames        : 5 frames
  19. Codec ID                                 : V_MPEG4/ISO/AVC
  20. Duration                                 : 2 h 10 min
  21. Bit rate                                 : 2 375 kb/s
  22. Width                                    : 1 920 pixels
  23. Height                                   : 800 pixels
  24. Display aspect ratio                     : 2.40:1
  25. Frame rate mode                          : Constant
  26. Frame rate                               : 23.976 (24000/1001) FPS
  27. Color space                              : YUV
  28. Chroma subsampling                       : 4:2:0
  29. Bit depth                                : 8 bits
  30. Scan type                                : Progressive
  31. Bits/(Pixel*Frame)                       : 0.064
  32. Stream size                              : 2.17 GiB (90%)
  33. Writing library                          : x264 core 157 r2935 545de2f
  34. Encoding settings                        : cabac=1 / ref=5 / deblock=1:-1:-1 / analyse=0x3:0x133 / me=umh / subme=9 / psy=1 / psy_rd=1.00:0.10 / mixed_ref=1 / me_range=24 / chroma_me=1 / trellis=2 / 8x8dct=1 / cqm=0 / deadzone=21,11 / fast_pskip=1 / chroma_qp_offset=-3 / threads=25 / lookahead_threads=2 / sliced_threads=0 / nr=0 / decimate=1 / interlaced=0 / bluray_compat=0 / constrained_intra=0 / bframes=3 / b_pyramid=2 / b_adapt=2 / b_bias=0 / direct=3 / weightb=1 / open_gop=0 / weightp=2 / keyint=250 / keyint_min=23 / scenecut=40 / intra_refresh=0 / rc_lookahead=60 / rc=2pass / mbtree=1 / bitrate=2375 / ratetol=1.0 / qcomp=0.60 / qpmin=0 / qpmax=69 / qpstep=4 / cplxblur=20.0 / qblur=0.5 / ip_ratio=1.40 / aq=1:1.00
  35. Default                                  : Yes
  36. Forced                                   : No
  37.  
  38. Audio
  39. ID                                       : 2
  40. Format                                   : AAC LC SBR
  41. Format/Info                              : Advanced Audio Codec Low Complexity with Spectral Band Replication
  42. Commercial name                          : HE-AAC
  43. Format settings                          : Explicit
  44. Codec ID                                 : A_AAC-2
  45. Duration                                 : 2 h 10 min
  46. Bit rate                                 : 256 kb/s
  47. Channel(s)                               : 6 channels
  48. Channel layout                           : C L R Ls Rs LFE
  49. Sampling rate                            : 48.0 kHz
  50. Frame rate                               : 23.438 FPS (2048 SPF)
  51. Compression mode                         : Lossy
  52. Delay relative to video                  : 43 ms
  53. Stream size                              : 239 MiB (10%)
  54. Language                                 : English
  55. Default                                  : Yes
  56. Forced                                   : No
  57.  
  58. Text #1
  59. ID                                       : 3
  60. Format                                   : UTF-8
  61. Codec ID                                 : S_TEXT/UTF8
  62. Codec ID/Info                            : UTF-8 Plain Text
  63. Duration                                 : 2 h 0 min
  64. Bit rate                                 : 31 b/s
  65. Count of elements                        : 1141
  66. Stream size                              : 27.8 KiB (0%)
  67. Title                                    : HI
  68. Language                                 : English
  69. Default                                  : Yes
  70. Forced                                   : No
  71.  
  72. Text #2
  73. ID                                       : 4
  74. Format                                   : UTF-8
  75. Codec ID                                 : S_TEXT/UTF8
  76. Codec ID/Info                            : UTF-8 Plain Text
  77. Duration                                 : 1 h 59 min
  78. Bit rate                                 : 24 b/s
  79. Count of elements                        : 764
  80. Stream size                              : 21.2 KiB (0%)
  81. Language                                 : English
  82. Default                                  : No
  83. Forced                                   : No