The text below is selected, press Ctrl+C to copy to your clipboard. (⌘+C on Mac) No line numbers will be copied.
MediaInfo

31st March 2019 02:34:31 PM | Views: 474
  1. Format                      : Matroska
  2. Format version              : Version 4
  3. File size                   : 3.50 GiB
  4. Duration                    : 2 h 30 min
  5. Overall bit rate            : 3 333 kb/s
  6. Movie name                  : Papillon.1973.1080p.BluRay.10bit.HEVC.6CH-MkvCage.ws
  7. Encoded date                : UTC 2019-03-31 13:43:18
  8. Writing application         : mkvmerge v31.0.0 ('Dolores In A Shoestand') 64-bit
  9. Writing library             : libebml v1.3.6 + libmatroska v1.4.9
  10. Cover                       : Yes
  11. Attachments                 : cover.jpg
  12.  
  13. Video
  14. ID                          : 1
  15. Format                      : HEVC
  16. Format/Info                 : High Efficiency Video Coding
  17. Format profile              : Main [email protected]@Main
  18. Codec ID                    : V_MPEGH/ISO/HEVC
  19. Duration                    : 2 h 30 min
  20. Bit rate                    : 3 075 kb/s
  21. Width                       : 1 920 pixels
  22. Height                      : 800 pixels
  23. Display aspect ratio        : 2.40:1
  24. Frame rate mode             : Constant
  25. Frame rate                  : 23.976 (24000/1001) FPS
  26. Color space                 : YUV
  27. Chroma subsampling          : 4:2:0
  28. Bit depth                   : 10 bits
  29. Bits/(Pixel*Frame)          : 0.083
  30. Stream size                 : 3.23 GiB (92%)
  31. Default                     : Yes
  32. Forced                      : No
  33.  
  34. Audio
  35. ID                          : 2
  36. Format                      : AAC LC SBR
  37. Format/Info                 : Advanced Audio Codec Low Complexity with Spectral Band Replication
  38. Commercial name             : HE-AAC
  39. Format settings             : Explicit
  40. Codec ID                    : A_AAC-2
  41. Duration                    : 2 h 30 min
  42. Bit rate                    : 256 kb/s
  43. Channel(s)                  : 6 channels
  44. Channel layout              : C L R Ls Rs LFE
  45. Sampling rate               : 48.0 kHz
  46. Frame rate                  : 23.438 FPS (2048 SPF)
  47. Compression mode            : Lossy
  48. Delay relative to video     : 43 ms
  49. Stream size                 : 276 MiB (8%)
  50. Language                    : English
  51. Default                     : Yes
  52. Forced                      : No
  53.  
  54. Text #1
  55. ID                          : 3
  56. Format                      : UTF-8
  57. Codec ID                    : S_TEXT/UTF8
  58. Codec ID/Info               : UTF-8 Plain Text
  59. Duration                    : 2 h 27 min
  60. Bit rate                    : 28 b/s
  61. Count of elements           : 1077
  62. Stream size                 : 30.4 KiB (0%)
  63. Title                       : HI
  64. Language                    : English
  65. Default                     : Yes
  66. Forced                      : No
  67.  
  68. Text #2
  69. ID                          : 4
  70. Format                      : UTF-8
  71. Codec ID                    : S_TEXT/UTF8
  72. Codec ID/Info               : UTF-8 Plain Text
  73. Duration                    : 2 h 27 min
  74. Bit rate                    : 25 b/s
  75. Count of elements           : 922
  76. Stream size                 : 27.4 KiB (0%)
  77. Language                    : English
  78. Default                     : No
  79. Forced                      : No
  80.  
  81. Menu
  82. 00:00:00.000                : en:Chapter 01
  83. 00:12:41.719                : en:Chapter 02
  84. 00:23:43.338                : en:Chapter 03
  85. 00:31:37.979                : en:Chapter 04
  86. 00:45:34.398                : en:Chapter 05
  87. 00:56:53.034                : en:Chapter 06
  88. 01:07:33.132                : en:Chapter 07
  89. 01:15:57.469                : en:Chapter 08
  90. 01:25:55.316                : en:Chapter 09
  91. 01:32:43.933                : en:Chapter 10
  92. 01:37:39.812                : en:Chapter 11
  93. 01:47:21.143                : en:Chapter 12
  94. 01:54:18.685                : en:Chapter 13
  95. 02:02:39.852                : en:Chapter 14
  96. 02:10:15.599                : en:Chapter 15
  97. 02:23:51.414                : en:Chapter 16