The text below is selected, press Ctrl+C to copy to your clipboard. (⌘+C on Mac) No line numbers will be copied.
The Wolf Witch (2020) 720p...

24th January 2023 06:22:46 AM | Views: 5
  1. Format                                   : Matroska
  2. Format version                           : Version 4
  3. File size                                : 829 MiB
  4. Duration                                 : 1 h 25 min
  5. Overall bit rate                         : 1 357 kb/s
  6. Movie name                               : The Wolf Witch (2020) 720p BMS WEB-DL x264 Hindi DD2.0 ESub 828MB [MoviezAddiction]
  7. Encoded date                             : UTC 2023-01-24 04:10:29
  8. Writing application                      : mkvmerge v72.0.0 ('Minuano (Six-eight)') 64-bit
  9. Writing library                          : libebml v1.4.4 + libmatroska v1.7.1
  10.  
  11. Video
  12. ID                                       : 1
  13. Format                                   : AVC
  14. Format/Info                              : Advanced Video Codec
  15. Format profile                           : [email protected]
  16. Format settings                          : CABAC / 4 Ref Frames
  17. Format settings, CABAC                   : Yes
  18. Format settings, Reference frames        : 4 frames
  19. Codec ID                                 : V_MPEG4/ISO/AVC
  20. Duration                                 : 1 h 25 min
  21. Bit rate                                 : 1 099 kb/s
  22. Width                                    : 1 280 pixels
  23. Height                                   : 544 pixels
  24. Display aspect ratio                     : 2.35:1
  25. Frame rate mode                          : Constant
  26. Frame rate                               : 25.000 FPS
  27. Color space                              : YUV
  28. Chroma subsampling                       : 4:2:0
  29. Bit depth                                : 8 bits
  30. Scan type                                : Progressive
  31. Bits/(Pixel*Frame)                       : 0.063
  32. Stream size                              : 671 MiB (81%)
  33. Default                                  : Yes
  34. Forced                                   : No
  35.  
  36. Audio
  37. ID                                       : 2
  38. Format                                   : AAC LC
  39. Format/Info                              : Advanced Audio Codec Low Complexity
  40. Codec ID                                 : A_AAC-2
  41. Duration                                 : 1 h 25 min
  42. Bit rate                                 : 256 kb/s
  43. Channel(s)                               : 2 channels
  44. Channel layout                           : L R
  45. Sampling rate                            : 48.0 kHz
  46. Frame rate                               : 46.875 FPS (1024 SPF)
  47. Compression mode                         : Lossy
  48. Stream size                              : 156 MiB (19%)
  49. Title                                    : Hindi
  50. Language                                 : Hindi
  51. Default                                  : Yes
  52. Forced                                   : No
  53.  
  54. Text
  55. ID                                       : 3
  56. Format                                   : UTF-8
  57. Codec ID                                 : S_TEXT/UTF8
  58. Codec ID/Info                            : UTF-8 Plain Text
  59. Duration                                 : 1 h 21 min
  60. Bit rate                                 : 35 b/s
  61. Count of elements                        : 1088
  62. Stream size                              : 21.1 KiB (0%)
  63. Title                                    : English [SRT]
  64. Language                                 : English
  65. Default                                  : Yes
  66. Forced                                   : No