The text below is selected, press Ctrl+C to copy to your clipboard. (⌘+C on Mac) No line numbers will be copied.
Homefront (2013) 720p Bluray x264

14th September 2020 08:41:43 AM | Views: 12
  1. Format                                   : Matroska
  2. Format version                           : Version 4
  3. File size                                : 1 012 MiB
  4. Duration                                 : 1 h 40 min
  5. Overall bit rate                         : 1 406 kb/s
  6. Movie name                               : Homefront (2013) 720p Bluray x264 Dual Audio [ Hindi DD5.1 + English DD5.1 ] ESub [www.MoviezAddiction.space]
  7. Encoded date                             : UTC 2020-09-14 06:23:58
  8. Writing application                      : mkvmerge v48.0.0 ('Fortress Around Your Heart') 64-bit
  9. Writing library                          : libebml v1.4.0 + libmatroska v1.6.0
  10. Encoded by                               : Pahe.in™ Team
  11.  
  12. Video
  13. ID                                       : 1
  14. Format                                   : AVC
  15. Format/Info                              : Advanced Video Codec
  16. Format profile                           : [email protected]
  17. Format settings                          : CABAC / 5 Ref Frames
  18. Format settings, CABAC                   : Yes
  19. Format settings, Reference frames        : 5 frames
  20. Codec ID                                 : V_MPEG4/ISO/AVC
  21. Duration                                 : 1 h 40 min
  22. Bit rate                                 : 1 025 kb/s
  23. Width                                    : 1 280 pixels
  24. Height                                   : 534 pixels
  25. Display aspect ratio                     : 2.40:1
  26. Frame rate mode                          : Constant
  27. Frame rate                               : 23.976 (24000/1001) FPS
  28. Color space                              : YUV
  29. Chroma subsampling                       : 4:2:0
  30. Bit depth                                : 8 bits
  31. Scan type                                : Progressive
  32. Bits/(Pixel*Frame)                       : 0.063
  33. Stream size                              : 737 MiB (73%)
  34. Title                                    : [www.MoviezAddiction.space]
  35. Writing library                          : x264 core 152 r2851 ba24899
  36. Encoding settings                        : cabac=1 / ref=5 / deblock=1:-2:-2 / analyse=0x3:0x133 / me=umh / subme=9 / psy=1 / psy_rd=1.00:0.15 / mixed_ref=1 / me_range=24 / chroma_me=1 / trellis=2 / 8x8dct=1 / cqm=0 / deadzone=21,11 / fast_pskip=1 / chroma_qp_offset=-3 / threads=17 / lookahead_threads=1 / sliced_threads=0 / nr=0 / decimate=1 / interlaced=0 / bluray_compat=0 / constrained_intra=0 / bframes=3 / b_pyramid=2 / b_adapt=2 / b_bias=0 / direct=3 / weightb=1 / open_gop=0 / weightp=2 / keyint=250 / keyint_min=23 / scenecut=40 / intra_refresh=0 / rc_lookahead=60 / rc=2pass / mbtree=1 / bitrate=1025 / ratetol=1.0 / qcomp=0.60 / qpmin=0 / qpmax=69 / qpstep=4 / cplxblur=20.0 / qblur=0.5 / vbv_maxrate=17500 / vbv_bufsize=19000 / nal_hrd=none / filler=0 / ip_ratio=1.40 / aq=3:0.80
  37. Default                                  : Yes
  38. Forced                                   : No
  39.  
  40. Audio #1
  41. ID                                       : 3
  42. Format                                   : AAC LC
  43. Format/Info                              : Advanced Audio Codec Low Complexity
  44. Codec ID                                 : A_AAC-2
  45. Duration                                 : 1 h 40 min
  46. Bit rate                                 : 192 kb/s
  47. Channel(s)                               : 6 channels
  48. Channel layout                           : C L R Ls Rs LFE
  49. Sampling rate                            : 48.0 kHz
  50. Frame rate                               : 46.875 FPS (1024 SPF)
  51. Compression mode                         : Lossy
  52. Stream size                              : 136 MiB (13%)
  53. Title                                    : [www.MoviezAddiction.space]
  54. Language                                 : English
  55. Default                                  : No
  56. Forced                                   : No
  57.  
  58. Audio #2
  59. ID                                       : 4
  60. Format                                   : AAC LC
  61. Format/Info                              : Advanced Audio Codec Low Complexity
  62. Codec ID                                 : A_AAC-2
  63. Duration                                 : 1 h 40 min
  64. Bit rate                                 : 192 kb/s
  65. Channel(s)                               : 6 channels
  66. Channel layout                           : C L R Ls Rs LFE
  67. Sampling rate                            : 48.0 kHz
  68. Frame rate                               : 46.875 FPS (1024 SPF)
  69. Compression mode                         : Lossy
  70. Delay relative to video                  : 2 s 200 ms
  71. Stream size                              : 136 MiB (13%)
  72. Title                                    : [www.MoviezAddiction.space]
  73. Language                                 : Hindi
  74. Default                                  : Yes
  75. Forced                                   : Yes
  76.  
  77. Text
  78. ID                                       : 2
  79. Format                                   : UTF-8
  80. Codec ID                                 : S_TEXT/UTF8
  81. Codec ID/Info                            : UTF-8 Plain Text
  82. Duration                                 : 1 h 33 min
  83. Bit rate                                 : 50 b/s
  84. Count of elements                        : 1175
  85. Stream size                              : 34.5 KiB (0%)
  86. Title                                    : [www.MoviezAddiction.space]
  87. Language                                 : English
  88. Default                                  : Yes
  89. Forced                                   : Yes
  90.  
  91. Menu
  92. 00:00:00.000                             : en:00:00:00.000
  93. 00:04:55.462                             : en:00:04:55.462
  94. 00:09:14.095                             : en:00:09:14.095
  95. 00:14:55.853                             : en:00:14:55.853
  96. 00:21:42.426                             : en:00:21:42.426
  97. 00:25:03.001                             : en:00:25:03.001
  98. 00:31:23.215                             : en:00:31:23.215
  99. 00:34:04.000                             : en:00:34:04.000
  100. 00:39:01.089                             : en:00:39:01.089
  101. 00:45:47.995                             : en:00:45:47.995
  102. 00:49:29.258                             : en:00:49:29.258
  103. 00:55:16.480                             : en:00:55:16.480
  104. 01:01:55.420                             : en:01:01:55.420
  105. 01:08:56.174                             : en:01:08:56.174
  106. 01:12:27.635                             : en:01:12:27.635
  107. 01:16:00.973                             : en:01:16:00.973
  108. 01:19:15.250                             : en:01:19:15.250
  109. 01:24:02.621                             : en:01:24:02.621
  110. 01:29:39.124                             : en:01:29:39.124
  111. 01:35:16.961                             : en:01:35:16.961