The text below is selected, press Ctrl+C to copy to your clipboard. (⌘+C on Mac) No line numbers will be copied.
Eternals (2021) IMAX 2160p 10bit...

13th January 2022 02:37:32 AM | Views: 94
  1. Format                                   : Matroska
  2. Format version                           : Version 4
  3. File size                                : 19.0 GiB
  4. Duration                                 : 2 h 35 min
  5. Overall bit rate                         : 17.5 Mb/s
  6. Movie name                               : Eternals (2021) IMAX 2160p UHD WEB-DL x265 10bit HDR HEVC Dual Audio [Hindi DDP5.1 + English DDP5.1 Atmos] MSubs 19.0GB [www.MoviezAddiction.art]
  7. Encoded date                             : UTC 2022-01-13 01:14:54
  8. Writing application                      : mkvmerge v47.0.0 ('Black Flag') 64-bit
  9. Writing library                          : libebml v1.3.10 + libmatroska v1.5.2
  10.  
  11. Video
  12. ID                                       : 1
  13. Format                                   : HEVC
  14. Format/Info                              : High Efficiency Video Coding
  15. Format profile                           : Main [email protected]@High
  16. HDR format                               : SMPTE ST 2086, HDR10 compatible
  17. Codec ID                                 : V_MPEGH/ISO/HEVC
  18. Duration                                 : 2 h 35 min
  19. Bit rate                                 : 16.5 Mb/s
  20. Width                                    : 3 840 pixels
  21. Height                                   : 2 160 pixels
  22. Display aspect ratio                     : 16:9
  23. Frame rate mode                          : Constant
  24. Frame rate                               : 23.976 (24000/1001) FPS
  25. Color space                              : YUV
  26. Chroma subsampling                       : 4:2:0
  27. Bit depth                                : 10 bits
  28. Bits/(Pixel*Frame)                       : 0.083
  29. Stream size                              : 18.0 GiB (94%)
  30. Title                                    : [www.MoviezAddiction.art]
  31. Default                                  : Yes
  32. Forced                                   : No
  33. Color range                              : Limited
  34. Color primaries                          : BT.2020
  35. Transfer characteristics                 : PQ
  36. Matrix coefficients                      : BT.2020 non-constant
  37. Mastering display color primaries        : Display P3
  38. Mastering display luminance              : min: 0.0000 cd/m2, max: 1000 cd/m2
  39.  
  40. Audio #1
  41. ID                                       : 2
  42. Format                                   : E-AC-3
  43. Format/Info                              : Enhanced AC-3
  44. Commercial name                          : Dolby Digital Plus
  45. Codec ID                                 : A_EAC3
  46. Duration                                 : 2 h 35 min
  47. Bit rate mode                            : Constant
  48. Bit rate                                 : 192 kb/s
  49. Channel(s)                               : 6 channels
  50. Channel layout                           : L R C LFE Ls Rs
  51. Sampling rate                            : 48.0 kHz
  52. Frame rate                               : 31.250 FPS (1536 SPF)
  53. Compression mode                         : Lossy
  54. Stream size                              : 214 MiB (1%)
  55. Title                                    : [www.MoviezAddiction.art] - Hindi
  56. Language                                 : Hindi
  57. Service kind                             : Complete Main
  58. Default                                  : Yes
  59. Forced                                   : No
  60.  
  61. Audio #2
  62. ID                                       : 3
  63. Format                                   : E-AC-3 JOC
  64. Format/Info                              : Enhanced AC-3 with Joint Object Coding
  65. Commercial name                          : Dolby Digital Plus with Dolby Atmos
  66. Codec ID                                 : A_EAC3
  67. Duration                                 : 2 h 35 min
  68. Bit rate mode                            : Constant
  69. Bit rate                                 : 768 kb/s
  70. Channel(s)                               : 6 channels
  71. Channel layout                           : L R C LFE Ls Rs
  72. Sampling rate                            : 48.0 kHz
  73. Frame rate                               : 31.250 FPS (1536 SPF)
  74. Compression mode                         : Lossy
  75. Stream size                              : 856 MiB (4%)
  76. Title                                    : [www.MoviezAddiction.art] - English
  77. Language                                 : English
  78. Service kind                             : Complete Main
  79. Default                                  : No
  80. Forced                                   : No
  81. Complexity index                         : 16
  82. Number of dynamic objects                : 15
  83. Bed channel count                        : 1 channel
  84. Bed channel configuration                : LFE
  85.  
  86. Text #1
  87. ID                                       : 4
  88. Format                                   : UTF-8
  89. Codec ID                                 : S_TEXT/UTF8
  90. Codec ID/Info                            : UTF-8 Plain Text
  91. Duration                                 : 2 h 33 min
  92. Bit rate                                 : 39 b/s
  93. Count of elements                        : 1708
  94. Stream size                              : 44.4 KiB (0%)
  95. Title                                    : [www.MoviezAddiction.art] - English [SRT]
  96. Language                                 : English
  97. Default                                  : Yes
  98. Forced                                   : No
  99.  
  100. Text #2
  101. ID                                       : 5
  102. Format                                   : UTF-8
  103. Codec ID                                 : S_TEXT/UTF8
  104. Codec ID/Info                            : UTF-8 Plain Text
  105. Duration                                 : 2 h 33 min
  106. Bit rate                                 : 49 b/s
  107. Count of elements                        : 2165
  108. Stream size                              : 56.0 KiB (0%)
  109. Title                                    : [www.MoviezAddiction.art] - English [SDH] [SRT]
  110. Language                                 : English
  111. Default                                  : No
  112. Forced                                   : No