The text below is selected, press Ctrl+C to copy to your clipboard. (⌘+C on Mac) No line numbers will be copied.
Subhash Chandra Bose The Mystery...

26th June 2020 06:20:45 AM | Views: 41
  1. Format                                   : Matroska
  2. Format version                           : Version 4
  3. File size                                : 1.71 GiB
  4. Duration                                 : 45 min 41 s
  5. Overall bit rate mode                    : Variable
  6. Overall bit rate                         : 5 359 kb/s
  7. Movie name                               : Subhash Chandra Bose The Mystery (2016) 1080p WEB-DL x264 Dual Audio [Hindi DD2.0 + English DD2.0] 1.70GB [Www.MoviezAddiction.site]
  8. Encoded date                             : UTC 2020-06-26 03:12:07
  9. Writing application                      : mkvmerge v47.0.0 ('Black Flag') 64-bit
  10. Writing library                          : libebml v1.3.10 + libmatroska v1.5.2
  11.  
  12. Video
  13. ID                                       : 1
  14. Format                                   : AVC
  15. Format/Info                              : Advanced Video Codec
  16. Format profile                           : [email protected]
  17. Format settings                          : CABAC / 3 Ref Frames
  18. Format settings, CABAC                   : Yes
  19. Format settings, Reference frames        : 3 frames
  20. Codec ID                                 : V_MPEG4/ISO/AVC
  21. Duration                                 : 45 min 41 s
  22. Bit rate mode                            : Variable
  23. Bit rate                                 : 4 977 kb/s
  24. Maximum bit rate                         : 6 000 kb/s
  25. Width                                    : 1 920 pixels
  26. Height                                   : 1 080 pixels
  27. Display aspect ratio                     : 16:9
  28. Frame rate mode                          : Constant
  29. Frame rate                               : 25.000 FPS
  30. Color space                              : YUV
  31. Chroma subsampling                       : 4:2:0
  32. Bit depth                                : 8 bits
  33. Scan type                                : Progressive
  34. Bits/(Pixel*Frame)                       : 0.096
  35. Stream size                              : 1.59 GiB (93%)
  36. Title                                    : [Www.MoviezAddiction.site]
  37. Default                                  : Yes
  38. Forced                                   : No
  39. Color range                              : Limited
  40. Color primaries                          : BT.709
  41. Transfer characteristics                 : BT.709
  42. Matrix coefficients                      : BT.709
  43.  
  44. Audio #1
  45. ID                                       : 2
  46. Format                                   : AAC LC
  47. Format/Info                              : Advanced Audio Codec Low Complexity
  48. Codec ID                                 : A_AAC-2
  49. Duration                                 : 45 min 40 s
  50. Bit rate                                 : 192 kb/s
  51. Channel(s)                               : 2 channels
  52. Channel layout                           : L R
  53. Sampling rate                            : 48.0 kHz
  54. Frame rate                               : 46.875 FPS (1024 SPF)
  55. Compression mode                         : Lossy
  56. Stream size                              : 61.9 MiB (4%)
  57. Title                                    : [Www.MoviezAddiction.site] - English
  58. Language                                 : English
  59. Default                                  : No
  60. Forced                                   : No
  61.  
  62. Audio #2
  63. ID                                       : 3
  64. Format                                   : AAC LC
  65. Format/Info                              : Advanced Audio Codec Low Complexity
  66. Codec ID                                 : A_AAC-2
  67. Duration                                 : 45 min 40 s
  68. Bit rate                                 : 192 kb/s
  69. Channel(s)                               : 2 channels
  70. Channel layout                           : L R
  71. Sampling rate                            : 48.0 kHz
  72. Frame rate                               : 46.875 FPS (1024 SPF)
  73. Compression mode                         : Lossy
  74. Stream size                              : 61.9 MiB (4%)
  75. Title                                    : [Www.MoviezAddiction.site] - Hindi
  76. Language                                 : Hindi
  77. Default                                  : Yes
  78. Forced                                   : Yes