The text below is selected, press Ctrl+C to copy to your clipboard. (⌘+C on Mac) No line numbers will be copied.
The Files of Young Kindaichi...

23rd January 2023 07:18:21 AM | Views: 5
  1. Format                                   : Matroska
  2. Format version                           : Version 4
  3. File size                                : 607 MiB
  4. Duration                                 : 1 h 8 min
  5. Overall bit rate                         : 1 231 kb/s
  6. Movie name                               : The Files of Young Kindaichi (2022) S01E01 [Academys Seven Mysteries Murder Case] 720p DSNP WEB-DL x264 Hindi DD2.0 ESub 607MB [MoviezAddiction]
  7. Encoded date                             : UTC 2023-01-23 03:31:50
  8. Writing application                      : mkvmerge v72.0.0 ('Minuano (Six-eight)') 64-bit
  9. Writing library                          : libebml v1.4.4 + libmatroska v1.7.1
  10.  
  11. Video
  12. ID                                       : 1
  13. Format                                   : AVC
  14. Format/Info                              : Advanced Video Codec
  15. Format profile                           : [email protected]
  16. Format settings                          : CABAC / 4 Ref Frames
  17. Format settings, CABAC                   : Yes
  18. Format settings, Reference frames        : 4 frames
  19. Codec ID                                 : V_MPEG4/ISO/AVC
  20. Duration                                 : 1 h 8 min
  21. Bit rate                                 : 1 099 kb/s
  22. Width                                    : 1 280 pixels
  23. Height                                   : 720 pixels
  24. Display aspect ratio                     : 16:9
  25. Frame rate mode                          : Variable
  26. Frame rate                               : 29.970 (29970/1000) FPS
  27. Original frame rate                      : 29.970 (30000/1001) FPS
  28. Color space                              : YUV
  29. Chroma subsampling                       : 4:2:0
  30. Bit depth                                : 8 bits
  31. Scan type                                : Progressive
  32. Bits/(Pixel*Frame)                       : 0.040
  33. Stream size                              : 542 MiB (89%)
  34. Default                                  : Yes
  35. Forced                                   : No
  36. Color range                              : Limited
  37. Color primaries                          : BT.709
  38. Transfer characteristics                 : BT.709
  39. Matrix coefficients                      : BT.709
  40.  
  41. Audio
  42. ID                                       : 2
  43. Format                                   : AAC LC
  44. Format/Info                              : Advanced Audio Codec Low Complexity
  45. Codec ID                                 : A_AAC-2
  46. Duration                                 : 1 h 8 min
  47. Bit rate                                 : 128 kb/s
  48. Channel(s)                               : 2 channels
  49. Channel layout                           : L R
  50. Sampling rate                            : 48.0 kHz
  51. Frame rate                               : 46.875 FPS (1024 SPF)
  52. Compression mode                         : Lossy
  53. Stream size                              : 63.1 MiB (10%)
  54. Title                                    : Hindi
  55. Language                                 : Hindi
  56. Default                                  : Yes
  57. Forced                                   : No
  58.  
  59. Text
  60. ID                                       : 3
  61. Format                                   : UTF-8
  62. Codec ID                                 : S_TEXT/UTF8
  63. Codec ID/Info                            : UTF-8 Plain Text
  64. Duration                                 : 1 h 8 min
  65. Bit rate                                 : 59 b/s
  66. Count of elements                        : 1169
  67. Stream size                              : 30.1 KiB (0%)
  68. Title                                    : English [SRT]
  69. Language                                 : English
  70. Default                                  : Yes
  71. Forced                                   : No